  0
SECTION
  2
HEADER
  9
$ACADVER
  1
AC1015
  9
$ACADMAINTVER
 70
     6
  9
$DWGCODEPAGE
  3
DOS932
  9
$INSBASE
 10
0.0
 20
0.0
 30
0.0
  9
$EXTMIN
 10
0.0
 20
0.0
 30
0.0
  9
$EXTMAX
 10
420.0
 20
297.0
 30
0.0
  9
$LIMMIN
 10
0.0
 20
0.0
  9
$LIMMAX
 10
420.0
 20
297.0
  9
$ORTHOMODE
 70
     0
  9
$REGENMODE
 70
     1
  9
$FILLMODE
 70
     1
  9
$QTEXTMODE
 70
     0
  9
$MIRRTEXT
 70
     1
  9
$LTSCALE
 40
0.25
  9
$ATTMODE
 70
     1
  9
$TEXTSIZE
 40
5.0
  9
$TRACEWID
 40
0.05
  9
$TEXTSTYLE
  7
Standard
  9
$CLAYER
  8
0
  9
$CELTYPE
  6
Continuous
  9
$CECOLOR
 62
   256
  9
$CELTSCALE
 40
1.0
  9
$DISPSILH
 70
     0
  9
$DIMSCALE
 40
1.0
  9
$DIMASZ
 40
2.0
  9
$DIMEXO
 40
2.0
  9
$DIMDLI
 40
10.0
  9
$DIMRND
 40
0.0
  9
$DIMDLE
 40
0.0
  9
$DIMEXE
 40
2.0
  9
$DIMTP
 40
0.0
  9
$DIMTM
 40
0.0
  9
$DIMTXT
 40
4.0
  9
$DIMCEN
 40
0.09
  9
$DIMTSZ
 40
0.0
  9
$DIMTOL
 70
     0
  9
$DIMLIM
 70
     0
  9
$DIMTIH
 70
     0
  9
$DIMTOH
 70
     0
  9
$DIMSE1
 70
     0
  9
$DIMSE2
 70
     0
  9
$DIMTAD
 70
     3
  9
$DIMZIN
 70
     0
  9
$DIMBLK
  1

  9
$DIMASO
 70
     1
  9
$DIMSHO
 70
     1
  9
$DIMPOST
  1

  9
$DIMAPOST
  1

  9
$DIMALT
 70
     0
  9
$DIMALTD
 70
     2
  9
$DIMALTF
 40
25.4
  9
$DIMLFAC
 40
1.0
  9
$DIMTOFL
 70
     1
  9
$DIMTVP
 40
0.7
  9
$DIMTIX
 70
     0
  9
$DIMSOXD
 70
     0
  9
$DIMSAH
 70
     0
  9
$DIMBLK1
  1

  9
$DIMBLK2
  1

  9
$DIMSTYLE
  2
Standard
  9
$DIMCLRD
 70
     0
  9
$DIMCLRE
 70
     0
  9
$DIMCLRT
 70
     0
  9
$DIMTFAC
 40
0.5
  9
$DIMGAP
 40
0.0
  9
$DIMJUST
 70
     0
  9
$DIMSD1
 70
     0
  9
$DIMSD2
 70
     0
  9
$DIMTOLJ
 70
     1
  9
$DIMTZIN
 70
     0
  9
$DIMALTZ
 70
     0
  9
$DIMALTTZ
 70
     0
  9
$DIMUPT
 70
     0
  9
$DIMDEC
 70
     2
  9
$DIMTDEC
 70
     4
  9
$DIMALTU
 70
     2
  9
$DIMALTTD
 70
     2
  9
$DIMTXSTY
  7
Standard
  9
$DIMAUNIT
 70
     0
  9
$DIMADEC
 70
     0
  9
$DIMALTRND
 40
0.0
  9
$DIMAZIN
 70
     0
  9
$DIMDSEP
 70
     0
  9
$DIMATFIT
 70
     3
  9
$DIMFRAC
 70
     0
  9
$DIMLDRBLK
  1

  9
$DIMLUNIT
 70
     2
  9
$DIMLWD
 70
     0
  9
$DIMLWE
 70
     0
  9
$DIMTMOVE
 70
     0
  9
$LUNITS
 70
     2
  9
$LUPREC
 70
     4
  9
$SKETCHINC
 40
0.1
  9
$FILLETRAD
 40
0.0
  9
$AUNITS
 70
     0
  9
$AUPREC
 70
     0
  9
$MENU
  1
acad
  9
$ELEVATION
 40
0.0
  9
$PELEVATION
 40
0.0
  9
$THICKNESS
 40
0.0
  9
$LIMCHECK
 70
     0
  9
$CHAMFERA
 40
0.0
  9
$CHAMFERB
 40
0.0
  9
$CHAMFERC
 40
0.0
  9
$CHAMFERD
 40
0.0
  9
$SKPOLY
 70
     0
  9
$TDCREATE
 40
2456190.418136574
  9
$TDUCREATE
 40
0.000000000
  9
$TDUPDATE
 40
2456190.418136574
  9
$TDUUPDATE
 40
0.000000000
  9
$TDINDWG
 40
0.0000000000
  9
$TDUSRTIMER
 40
0.0000000000
  9
$USRTIMER
 70
     1
  9
$ANGBASE
 50
0.0
  9
$ANGDIR
 70
     0
  9
$PDMODE
 70
     0
  9
$PDSIZE
 40
0.0
  9
$PLINEWID
 40
0.0
  9
$SPLFRAME
 70
     0
  9
$SPLINETYPE
 70
     6
  9
$SPLINESEGS
 70
     8
  9
$HANDSEED
  5
759
  9
$SURFTAB1
 70
     6
  9
$SURFTAB2
 70
     6
  9
$SURFTYPE
 70
     6
  9
$SURFU
 70
     6
  9
$SURFV
 70
     6
  9
$UCSBASE
  2

  9
$UCSNAME
  2

  9
$UCSORG
 10
0.0
 20
0.0
 30
0.0
  9
$UCSXDIR
 10
1.0
 20
0.0
 30
0.0
  9
$UCSYDIR
 10
0.0
 20
1.0
 30
0.0
  9
$UCSORTHOREF
  2

  9
$UCSORTHOVIEW
 70
     0
  9
$UCSORGTOP
 10
0.0
 20
0.0
 30
0.0
  9
$UCSORGBOTTOM
 10
0.0
 20
0.0
 30
0.0
  9
$UCSORGLEFT
 10
0.0
 20
0.0
 30
0.0
  9
$UCSORGRIGHT
 10
0.0
 20
0.0
 30
0.0
  9
$UCSORGFRONT
 10
0.0
 20
0.0
 30
0.0
  9
$UCSORGBACK
 10
0.0
 20
0.0
 30
0.0
  9
$PUCSBASE
  2

  9
$PUCSNAME
  2

  9
$PUCSORG
 10
0.0
 20
0.0
 30
0.0
  9
$PUCSXDIR
 10
1.0
 20
0.0
 30
0.0
  9
$PUCSYDIR
 10
0.0
 20
1.0
 30
0.0
  9
$PUCSORTHOREF
  2

  9
$PUCSORTHOVIEW
 70
     0
  9
$PUCSORGTOP
 10
0.0
 20
0.0
 30
0.0
  9
$PUCSORGBOTTOM
 10
0.0
 20
0.0
 30
0.0
  9
$PUCSORGLEFT
 10
0.0
 20
0.0
 30
0.0
  9
$PUCSORGRIGHT
 10
0.0
 20
0.0
 30
0.0
  9
$PUCSORGFRONT
 10
0.0
 20
0.0
 30
0.0
  9
$PUCSORGBACK
 10
0.0
 20
0.0
 30
0.0
  9
$USERI1
 70
     0
  9
$USERI2
 70
     0
  9
$USERI3
 70
     0
  9
$USERI4
 70
     0
  9
$USERI5
 70
     0
  9
$USERR1
 40
0.0
  9
$USERR2
 40
0.0
  9
$USERR3
 40
0.0
  9
$USERR4
 40
0.0
  9
$USERR5
 40
0.0
  9
$WORLDVIEW
 70
     1
  9
$SHADEDGE
 70
     3
  9
$SHADEDIF
 70
    70
  9
$TILEMODE
 70
     1
  9
$MAXACTVP
 70
    16
  9
$PINSBASE
 10
0.0
 20
0.0
 30
0.0
  9
$PLIMCHECK
 70
     0
  9
$PEXTMIN
 10
0.0
 20
0.0
 30
0.0
  9
$PEXTMAX
 10
420.0
 20
297.0
 30
0.0
  9
$PLIMMIN
 10
0.0
 20
0.0
  9
$PLIMMAX
 10
420.0
 20
297.0
  9
$UNITMODE
 70
     0
  9
$VISRETAIN
 70
     0
  9
$PLINEGEN
 70
     1
  9
$PSLTSCALE
 70
     0
  9
$TREEDEPTH
 70
  3020
  9
$CMLSTYLE
  2
Standard
  9
$CMLJUST
 70
     0
  9
$CMLSCALE
 40
1.0
  9
$PROXYGRAPHICS
 70
     0
  9
$MEASUREMENT
 70
     0
  9
$CELWEIGHT
370
     0
  9
$ENDCAPS
280
     0
  9
$JOINSTYLE
280
     0
  9
$LWDISPLAY
290
     0
  9
$INSUNITS
 70
     0
  9
$HYPERLINKBASE
  1

  9
$STYLESHEET
  1

  9
$XEDIT
290
     1
  9
$CEPSNTYPE
380
     0
  9
$PSTYLEMODE
290
     1
  9
$FINGERPRINTGUID
  2

  9
$VERSIONGUID
  2

  9
$EXTNAMES
290
     1
  9
$PSVPSCALE
 40
0.0
  0
ENDSEC
  0
SECTION
  2
CLASSES
  0
CLASS
  1
LWPOLYLINE
  2
AcDbPolyline
  3
AutoCAD 2000
 90
    32768
280
     0
281
     1
  0
CLASS
  1
IMAGE
  2
AcDbRasterImage
  3
ISM
 90
    32895
280
     0
281
     1
  0
CLASS
  1
OLE2FRAME
  2
AcDbOle2Frame
  3
AutoCAD 2000
 90
    32768
280
     0
281
     1
  0
CLASS
  1
HATCH
  2
AcDbHatch
  3
AutoCAD 2000
 90
    32768
280
     0
281
     1
  0
CLASS
  1
DICTIONARYVAR
  2
AcDbDictionaryVar
  3
AutoCAD 2000
 90
    32768
280
     0
281
     0
  0
CLASS
  1
RASTERVARIABLES
  2
AcDbRasterVariables
  3
ISM
 90
    32768
280
     0
281
     0
  0
CLASS
  1
IMAGEDEF
  2
AcDbRasterImageDef
  3
ISM
 90
    32768
280
     0
281
     0
  0
CLASS
  1
IMAGEDEF_REACTOR
  2
AcDbRasterImageDefReactor
  3
ISM
 90
    32769
280
     0
281
     0
  0
CLASS
  1
IDBUFFER
  2
AcDbIdBuffer
  3
AutoCAD 2000
 90
    32768
280
     0
281
     0
  0
CLASS
  1
SPATIAL_FILTER
  2
AcDbSpatialFilter
  3
AutoCAD 2000
 90
    32768
280
     0
281
     0
  0
CLASS
  1
XRECORD
  2
AcDbXrecord
  3
AutoCAD 2000
 90
    32768
280
     0
281
     0
  0
CLASS
  1
SORTENTSTABLE
  2
AcDbSortentsTable
  3
AutoCAD 2000
 90
    32768
280
     0
281
     0
  0
CLASS
  1
LAYER_INDEX
  2
AcDbLayerIndex
  3
AutoCAD 2000
 90
    32768
280
     0
281
     0
  0
CLASS
  1
SPATIAL_INDEX
  2
AcDbSpatialIndex
  3
AutoCAD 2000
 90
    32768
280
     0
281
     0
  0
CLASS
  1
OBJECT_PTR
  2
CAseDLPNTableRecord
  3
"ASE-LPNTableRecord"
 90
    32769
280
     0
281
     0
  0
CLASS
  1
LAYOUT
  2
AcDbLayout
  3
AutoCAD 2000
 90
        0
280
     0
281
     0
  0
CLASS
  1
PLOTSETTINGS
  2
AcDbPlotSettings
  3
AutoCAD 2000
 90
    32768
280
     0
281
     0
  0
CLASS
  1
ACDBDICTIONARYWDFLT
  2
AcDbDictionaryWithDefault
  3
AutoCAD 2000
 90
        0
280
     0
281
     0
  0
CLASS
  1
ACDBPLACEHOLDER
  2
AcDbPlaceHolder
  3
AutoCAD 2000
 90
        0
280
     0
281
     0
  0
CLASS
  1
VBA_PROJECT
  2
AcDbVbaProject
  3
acadvba
 90
    32768
280
     0
281
     0
  0
CLASS
  1
WIPEOUT
  2
AcDbWipeout
  3
WipeOut|AutoCAD Express Tool|expresstools@autodesk.com
 90
    32895
280
     0
281
     1
  0
CLASS
  1
WIPEOUTVARIABLES
  2
AcDbWipeoutVariables
  3
WipeOut|AutoCAD Express Tool|expresstools@autodesk.com
 90
        0
280
     0
281
     0
  0
CLASS
  1
RTEXT
  2
RText
  3
RText|AutoCAD Express Tool|expresstools@autodesk.com
 90
    32768
280
     0
281
     1
  0
CLASS
  1
ARCALIGNEDTEXT
  2
AcDbArcAlignedText
  3
ATEXT|AutoCAD Express Tool|expresstools@autodesk.com
 90
    32768
280
     0
281
     1
  0
ENDSEC
  0
SECTION
  2
TABLES
  0
TABLE
  2
VPORT
  5
7
100
AcDbSymbolTable
 70
     1
  0
VPORT
  5
15
100
AcDbSymbolTableRecord
100
AcDbViewportTableRecord
  2
*ACTIVE
 70
     0
 10
0.0
 20
0.0
 11
1.0
 21
1.0
 12
6.591288
 22
4.579184
 13
0.0
 23
0.0
 14
1.0
 24
1.0
 15
0.0
 25
0.0
 16
0.0
 26
0.0
 36
1.0
 17
0.0
 27
0.0
 37
0.0
 40
9.158369
 41
0.688564
 42
50.0
 43
0.0
 44
0.0
 50
0.0
 51
0.0
 71
     0
 72
   100
 73
     1
 74
     1
 75
     0
 76
     0
 77
     0
 78
     0
281
     0
 65
     0
110
0.0
120
0.0
130
0.0
111
1.0
121
0.0
131
0.0
112
0.0
122
1.0
132
0.0
345
0
346
0
 79
     0
146
0.0
  0
ENDTAB
  0
TABLE
  2
LTYPE
  5
4
100
AcDbSymbolTable
 70
     9
  0
LTYPE
  5
11
100
AcDbSymbolTableRecord
100
AcDbLinetypeTableRecord
  2
ByBlock
 70
    64
  3

 72
    65
 73
     0
 40
0.0
  0
LTYPE
  5
12
100
AcDbSymbolTableRecord
100
AcDbLinetypeTableRecord
  2
ByLayer
 70
    64
  3

 72
    65
 73
     0
 40
0.0
  0
LTYPE
  5
13
100
AcDbSymbolTableRecord
100
AcDbLinetypeTableRecord
  2
Continuous
 70
    64
  3
Solid line
 72
    65
 73
     0
 40
0.0
  0
LTYPE
  5
25
100
AcDbSymbolTableRecord
100
AcDbLinetypeTableRecord
  2
HIDDEN
 70
    64
  3
- - - - - - - - 
 72
    65
 73
     2
 40
12.6
 49
8.4
 74
     0
 49
-4.2
 74
     0
  0
LTYPE
  5
26
100
AcDbSymbolTableRecord
100
AcDbLinetypeTableRecord
  2
DOT
 70
    64
  3
･ ･ ･ ･ ･ ･ ･ ･ 
 72
    65
 73
     2
 40
8.0
 49
6.0
 74
     0
 49
-2.0
 74
     0
  0
LTYPE
  5
27
100
AcDbSymbolTableRecord
100
AcDbLinetypeTableRecord
  2
CENTER
 70
    64
  3
- ･ - ･ - ･ - ･ 
 72
    65
 73
     4
 40
50.5
 49
30.0
 74
     0
 49
-9.0
 74
     0
 49
2.5
 74
     0
 49
-9.0
 74
     0
  0
LTYPE
  5
28
100
AcDbSymbolTableRecord
100
AcDbLinetypeTableRecord
  2
PHANTOM
 70
    64
  3
- ･･ - ･･ - ･･ - ･･ 
 72
    65
 73
     6
 40
58.0
 49
30.0
 74
     0
 49
-9.0
 74
     0
 49
2.5
 74
     0
 49
-5.0
 74
     0
 49
2.5
 74
     0
 49
-9.0
 74
     0
  0
LTYPE
  5
29
100
AcDbSymbolTableRecord
100
AcDbLinetypeTableRecord
  2
ACAD_ISO06W100
 70
    64
  3
____ ... ____ ... ____
 72
    65
 73
     8
 40
37.5
 49
24.0
 74
     0
 49
-3.0
 74
     0
 49
0.5
 74
     0
 49
-3.0
 74
     0
 49
0.5
 74
     0
 49
-3.0
 74
     0
 49
0.5
 74
     0
 49
-3.0
 74
     0
  0
LTYPE
  5
2A
100
AcDbSymbolTableRecord
100
AcDbLinetypeTableRecord
  2
ACAD_ISO14W100
 70
    64
  3
__ . . . __ . . . __ . . . 
 72
    65
 73
     8
 40
25.5
 49
12.0
 74
     0
 49
-3.0
 74
     0
 49
0.5
 74
     0
 49
-3.0
 74
     0
 49
0.5
 74
     0
 49
-3.0
 74
     0
 49
0.5
 74
     0
 49
-3.0
 74
     0
  0
ENDTAB
  0
TABLE
  2
LAYER
  5
2
100
AcDbSymbolTable
 70
    22
  0
LAYER
  5
14
100
AcDbSymbolTableRecord
100
AcDbLayerTableRecord
  2
0
 70
     0
 62
     7
  6
Continuous
290
     1
370
    -3
390
1D
  0
LAYER
  5
2B
100
AcDbSymbolTableRecord
100
AcDbLayerTableRecord
  2
1
 70
     0
 62
     7
  6
Continuous
290
     1
370
    -3
390
1D
  0
LAYER
  5
2C
100
AcDbSymbolTableRecord
100
AcDbLayerTableRecord
  2
2
 70
     0
 62
   134
  6
Continuous
290
     1
370
    -3
390
1D
  0
LAYER
  5
2D
100
AcDbSymbolTableRecord
100
AcDbLayerTableRecord
  2
3
 70
     0
 62
   214
  6
Continuous
290
     1
370
    -3
390
1D
  0
LAYER
  5
2E
100
AcDbSymbolTableRecord
100
AcDbLayerTableRecord
  2
4
 70
     0
 62
    54
  6
Continuous
290
     1
370
    -3
390
1D
  0
LAYER
  5
2F
100
AcDbSymbolTableRecord
100
AcDbLayerTableRecord
  2
5
 70
     0
 62
    94
  6
Continuous
290
     1
370
    -3
390
1D
  0
LAYER
  5
30
100
AcDbSymbolTableRecord
100
AcDbLayerTableRecord
  2
6
 70
     0
 62
    14
  6
Continuous
290
     1
370
    -3
390
1D
  0
LAYER
  5
31
100
AcDbSymbolTableRecord
100
AcDbLayerTableRecord
  2
7
 70
     0
 62
     4
  6
Continuous
290
     1
370
    -3
390
1D
  0
LAYER
  5
32
100
AcDbSymbolTableRecord
100
AcDbLayerTableRecord
  2
8
 70
     0
 62
     6
  6
Continuous
290
     1
370
    -3
390
1D
  0
LAYER
  5
33
100
AcDbSymbolTableRecord
100
AcDbLayerTableRecord
  2
9
 70
     0
 62
     2
  6
Continuous
290
     1
370
    -3
390
1D
  0
LAYER
  5
34
100
AcDbSymbolTableRecord
100
AcDbLayerTableRecord
  2
10
 70
     0
 62
     3
  6
Continuous
290
     1
370
    -3
390
1D
  0
LAYER
  5
35
100
AcDbSymbolTableRecord
100
AcDbLayerTableRecord
  2
11
 70
     0
 62
   251
  6
Continuous
290
     1
370
    -3
390
1D
  0
LAYER
  5
36
100
AcDbSymbolTableRecord
100
AcDbLayerTableRecord
  2
12
 70
     0
 62
   136
  6
Continuous
290
     1
370
    -3
390
1D
  0
LAYER
  5
37
100
AcDbSymbolTableRecord
100
AcDbLayerTableRecord
  2
13
 70
     0
 62
   216
  6
Continuous
290
     1
370
    -3
390
1D
  0
LAYER
  5
38
100
AcDbSymbolTableRecord
100
AcDbLayerTableRecord
  2
14
 70
     0
 62
    56
  6
Continuous
290
     1
370
    -3
390
1D
  0
LAYER
  5
39
100
AcDbSymbolTableRecord
100
AcDbLayerTableRecord
  2
15
 70
     0
 62
    96
  6
Continuous
290
     1
370
    -3
390
1D
  0
LAYER
  5
3A
100
AcDbSymbolTableRecord
100
AcDbLayerTableRecord
  2
16
 70
     0
 62
    16
  6
Continuous
290
     1
370
    -3
390
1D
  0
LAYER
  5
3B
100
AcDbSymbolTableRecord
100
AcDbLayerTableRecord
  2
17
 70
     0
 62
   132
  6
Continuous
290
     1
370
    -3
390
1D
  0
LAYER
  5
3C
100
AcDbSymbolTableRecord
100
AcDbLayerTableRecord
  2
18
 70
     0
 62
   212
  6
Continuous
290
     1
370
    -3
390
1D
  0
LAYER
  5
3D
100
AcDbSymbolTableRecord
100
AcDbLayerTableRecord
  2
19
 70
     0
 62
    52
  6
Continuous
290
     1
370
    -3
390
1D
  0
LAYER
  5
3E
100
AcDbSymbolTableRecord
100
AcDbLayerTableRecord
  2
20
 70
     0
 62
   250
  6
Continuous
290
     1
370
    -3
390
1D
  0
LAYER
  5
3F
100
AcDbSymbolTableRecord
100
AcDbLayerTableRecord
  2
21
 70
     0
 62
     7
  6
Continuous
290
     1
370
    -3
390
1D
  0
ENDTAB
  0
TABLE
  2
STYLE
  5
3
100
AcDbSymbolTable
 70
     2
  0
STYLE
  5
17
100
AcDbSymbolTableRecord
100
AcDbTextStyleTableRecord
  2
Standard
 70
     0
 40
0.0
 41
1.0
 50
0.0
 71
     0
 42
0.0
  3
txt
  4
bigfont
  0
STYLE
  5
24
100
AcDbSymbolTableRecord
100
AcDbTextStyleTableRecord
  2
T_STANDARD
 70
    68
 40
10.0
 41
1.0
 50
0.0
 71
     0
 42
10.0
  3
txt
  4
bigfont
  0
ENDTAB
  0
TABLE
  2
VIEW
  5
5
100
AcDbSymbolTable
 70
     0
  0
ENDTAB
  0
TABLE
  2
UCS
  5
6
100
AcDbSymbolTable
 70
     0
  0
ENDTAB
  0
TABLE
  2
APPID
  5
8
100
AcDbSymbolTable
 70
     1
  0
APPID
  5
16
100
AcDbSymbolTableRecord
100
AcDbRegAppTableRecord
  2
ACAD
 70
     0
  0
ENDTAB
  0
TABLE
  2
DIMSTYLE
  5
9
100
AcDbSymbolTable
 70
     1
100
AcDbDimStyleTable
 71
     0
  0
DIMSTYLE
105
18
100
AcDbSymbolTableRecord
100
AcDbDimStyleTableRecord
  2
Standard
 70
     0
  3

  4

 40
1.0
 41
0.18
 42
0.0625
 43
0.38
 44
0.18
 45
0.0
 46
0.0
 47
0.0
 48
0.0
 71
     0
 72
     0
 73
     1
 74
     1
 75
     0
 76
     0
 77
     0
 78
     0
 79
     0
140
0.18
141
0.09
142
0.0
143
25.4
144
1.0
145
0.0
146
1.0
147
0.09
148
0.0
170
     0
171
     2
172
     0
173
     0
174
     0
175
     0
176
     0
177
     0
178
     0
179
     0
271
     4
272
     4
273
     2
274
     2
275
     0
276
     0
277
     2
278
    46
279
     0
280
     0
281
     0
282
     0
283
     1
284
     0
285
     0
286
     0
288
     0
340
17
341
0
342
0
343
0
344
0
371
    -2
372
    -2
  0
ENDTAB
  0
TABLE
  2
BLOCK_RECORD
  5
1
100
AcDbSymbolTable
 70
    16
  0
BLOCK_RECORD
  5
A
100
AcDbSymbolTableRecord
100
AcDbBlockTableRecord
  2
*MODEL_SPACE
340
20
  0
BLOCK_RECORD
  5
B
100
AcDbSymbolTableRecord
100
AcDbBlockTableRecord
  2
*PAPER_SPACE
340
21
  0
BLOCK_RECORD
  5
40
100
AcDbSymbolTableRecord
100
AcDbBlockTableRecord
  2
*G0
340
0
102
{BLKREFS
331
43
102
}
  0
BLOCK_RECORD
  5
44
100
AcDbSymbolTableRecord
100
AcDbBlockTableRecord
  2
*D1
340
0
  0
BLOCK_RECORD
  5
5A
100
AcDbSymbolTableRecord
100
AcDbBlockTableRecord
  2
*D2
340
0
  0
BLOCK_RECORD
  5
BA
100
AcDbSymbolTableRecord
100
AcDbBlockTableRecord
  2
*D3
340
0
  0
BLOCK_RECORD
  5
CE
100
AcDbSymbolTableRecord
100
AcDbBlockTableRecord
  2
*D4
340
0
  0
BLOCK_RECORD
  5
E2
100
AcDbSymbolTableRecord
100
AcDbBlockTableRecord
  2
*D5
340
0
  0
BLOCK_RECORD
  5
F6
100
AcDbSymbolTableRecord
100
AcDbBlockTableRecord
  2
*D6
340
0
  0
BLOCK_RECORD
  5
10A
100
AcDbSymbolTableRecord
100
AcDbBlockTableRecord
  2
*D7
340
0
  0
BLOCK_RECORD
  5
11E
100
AcDbSymbolTableRecord
100
AcDbBlockTableRecord
  2
*D8
340
0
  0
BLOCK_RECORD
  5
132
100
AcDbSymbolTableRecord
100
AcDbBlockTableRecord
  2
*D9
340
0
  0
BLOCK_RECORD
  5
146
100
AcDbSymbolTableRecord
100
AcDbBlockTableRecord
  2
*D10
340
0
  0
BLOCK_RECORD
  5
15A
100
AcDbSymbolTableRecord
100
AcDbBlockTableRecord
  2
*D11
340
0
  0
BLOCK_RECORD
  5
16E
100
AcDbSymbolTableRecord
100
AcDbBlockTableRecord
  2
*D12
340
0
  0
BLOCK_RECORD
  5
182
100
AcDbSymbolTableRecord
100
AcDbBlockTableRecord
  2
*D13
340
0
  0
BLOCK_RECORD
  5
196
100
AcDbSymbolTableRecord
100
AcDbBlockTableRecord
  2
*D14
340
0
  0
BLOCK_RECORD
  5
1AA
100
AcDbSymbolTableRecord
100
AcDbBlockTableRecord
  2
*D15
340
0
  0
ENDTAB
  0
ENDSEC
  0
SECTION
  2
BLOCKS
  0
BLOCK
  5
D
100
AcDbEntity
  8
0
100
AcDbBlockBegin
  2
*MODEL_SPACE
 70
     0
 10
0.0
 20
0.0
 30
0.0
  3
*MODEL_SPACE
  1

  0
ENDBLK
  5
E
100
AcDbEntity
  8
0
100
AcDbBlockEnd
  0
BLOCK
  5
F
100
AcDbEntity
 67
     1
  8
0
100
AcDbBlockBegin
  2
*PAPER_SPACE
 70
     0
 10
0.0
 20
0.0
 30
0.0
  3
*PAPER_SPACE
  1

  0
ENDBLK
  5
10
100
AcDbEntity
 67
     1
  8
0
100
AcDbBlockEnd
  0
BLOCK
  5
41
100
AcDbEntity
  8
0
370
     9
  6
Continuous
 62
     7
100
AcDbBlockBegin
  2
*G0
 70
     0
 10
0.0
 20
0.0
 30
0.0
  3
*G0
  1

  0
ENDBLK
  5
42
100
AcDbEntity
  8
0
100
AcDbBlockEnd
  0
BLOCK
  5
45
100
AcDbEntity
  8
1
370
     9
  6
Continuous
 62
     7
100
AcDbBlockBegin
  2
*D1
 70
     0
 10
0.0
 20
0.0
 30
0.0
  3
*D1
  1

  0
LINE
  5
46
100
AcDbEntity
  8
1
370
     9
  6
Continuous
 62
     7
100
AcDbLine
 10
332.977721
 20
25.674418
 30
0.0
 11
332.977721
 21
49.674418
 31
0.0
  0
LINE
  5
47
100
AcDbEntity
  8
1
370
     9
  6
Continuous
 62
     7
100
AcDbLine
 10
334.977721
 20
25.674418
 30
0.0
 11
309.697985
 21
25.674418
 31
0.0
  0
LINE
  5
48
100
AcDbEntity
  8
1
370
     9
  6
Continuous
 62
     7
100
AcDbLine
 10
334.977721
 20
49.674418
 30
0.0
 11
309.697985
 21
49.674418
 31
0.0
  0
LINE
  5
49
100
AcDbEntity
  8
1
370
     9
  6
Continuous
 62
     7
100
AcDbLine
 10
332.977721
 20
25.674418
 30
0.0
 11
332.460083
 21
27.60627
 31
0.0
  0
LINE
  5
4A
100
AcDbEntity
  8
1
370
     9
  6
Continuous
 62
     7
100
AcDbLine
 10
332.977721
 20
25.674418
 30
0.0
 11
333.495359
 21
27.60627
 31
0.0
  0
LINE
  5
4B
100
AcDbEntity
  8
1
370
     9
  6
Continuous
 62
     7
100
AcDbLine
 10
332.460083
 20
27.60627
 30
0.0
 11
333.495359
 21
27.60627
 31
0.0
  0
LINE
  5
4C
100
AcDbEntity
  8
1
370
     9
  6
Continuous
 62
     7
100
AcDbLine
 10
332.977721
 20
26.157381
 30
0.0
 11
332.718902
 21
27.123307
 31
0.0
  0
LINE
  5
4D
100
AcDbEntity
  8
1
370
     9
  6
Continuous
 62
     7
100
AcDbLine
 10
332.977721
 20
26.157381
 30
0.0
 11
333.23654
 21
27.123307
 31
0.0
  0
LINE
  5
4E
100
AcDbEntity
  8
1
370
     9
  6
Continuous
 62
     7
100
AcDbLine
 10
332.718902
 20
27.123307
 30
0.0
 11
333.23654
 21
27.123307
 31
0.0
  0
LINE
  5
4F
100
AcDbEntity
  8
1
370
     9
  6
Continuous
 62
     7
100
AcDbLine
 10
332.977721
 20
49.674418
 30
0.0
 11
333.495359
 21
47.742567
 31
0.0
  0
LINE
  5
50
100
AcDbEntity
  8
1
370
     9
  6
Continuous
 62
     7
100
AcDbLine
 10
332.977721
 20
49.674418
 30
0.0
 11
332.460083
 21
47.742567
 31
0.0
  0
LINE
  5
51
100
AcDbEntity
  8
1
370
     9
  6
Continuous
 62
     7
100
AcDbLine
 10
333.495359
 20
47.742567
 30
0.0
 11
332.460083
 21
47.742567
 31
0.0
  0
LINE
  5
52
100
AcDbEntity
  8
1
370
     9
  6
Continuous
 62
     7
100
AcDbLine
 10
332.977721
 20
49.191456
 30
0.0
 11
333.23654
 21
48.22553
 31
0.0
  0
LINE
  5
53
100
AcDbEntity
  8
1
370
     9
  6
Continuous
 62
     7
100
AcDbLine
 10
332.977721
 20
49.191456
 30
0.0
 11
332.718902
 21
48.22553
 31
0.0
  0
LINE
  5
54
100
AcDbEntity
  8
1
370
     9
  6
Continuous
 62
     7
100
AcDbLine
 10
333.23654
 20
48.22553
 30
0.0
 11
332.718902
 21
48.22553
 31
0.0
  0
TEXT
  5
55
100
AcDbEntity
  8
1
370
     9
  6
Continuous
 62
     7
100
AcDbText
 10
332.977721
 20
34.674418
 30
0.0
 40
5.0
  1
□24
 50
90.0
 41
0.6
 51
15.0
 11
332.977721
 21
34.674418
 31
0.0
100
AcDbText
 73
     1
  0
ENDBLK
  5
56
100
AcDbEntity
  8
1
370
     9
  6
Continuous
 62
     7
100
AcDbBlockEnd
  0
BLOCK
  5
5B
100
AcDbEntity
  8
1
370
     9
  6
Continuous
 62
     7
100
AcDbBlockBegin
  2
*D2
 70
     0
 10
0.0
 20
0.0
 30
0.0
  3
*D2
  1

  0
LINE
  5
5C
100
AcDbEntity
  8
1
370
     9
  6
Continuous
 62
     7
100
AcDbLine
 10
224.100152
 20
43.674418
 30
0.0
 11
224.100152
 21
60.674418
 31
0.0
  0
LINE
  5
5D
100
AcDbEntity
  8
1
370
     9
  6
Continuous
 62
     7
100
AcDbLine
 10
222.100152
 20
51.674418
 30
0.0
 11
248.197985
 21
51.674418
 31
0.0
  0
LINE
  5
5E
100
AcDbEntity
  8
1
370
     9
  6
Continuous
 62
     7
100
AcDbLine
 10
226.100152
 20
52.674418
 30
0.0
 11
210.697985
 21
52.674418
 31
0.0
  0
LINE
  5
5F
100
AcDbEntity
  8
1
370
     9
  6
Continuous
 62
     7
100
AcDbLine
 10
224.100152
 20
51.674418
 30
0.0
 11
224.61779
 21
49.742567
 31
0.0
  0
LINE
  5
60
100
AcDbEntity
  8
1
370
     9
  6
Continuous
 62
     7
100
AcDbLine
 10
224.100152
 20
51.674418
 30
0.0
 11
223.582514
 21
49.742567
 31
0.0
  0
LINE
  5
61
100
AcDbEntity
  8
1
370
     9
  6
Continuous
 62
     7
100
AcDbLine
 10
224.61779
 20
49.742567
 30
0.0
 11
223.582514
 21
49.742567
 31
0.0
  0
LINE
  5
62
100
AcDbEntity
  8
1
370
     9
  6
Continuous
 62
     7
100
AcDbLine
 10
224.100152
 20
51.191456
 30
0.0
 11
224.358971
 21
50.22553
 31
0.0
  0
LINE
  5
63
100
AcDbEntity
  8
1
370
     9
  6
Continuous
 62
     7
100
AcDbLine
 10
224.100152
 20
51.191456
 30
0.0
 11
223.841333
 21
50.22553
 31
0.0
  0
LINE
  5
64
100
AcDbEntity
  8
1
370
     9
  6
Continuous
 62
     7
100
AcDbLine
 10
224.358971
 20
50.22553
 30
0.0
 11
223.841333
 21
50.22553
 31
0.0
  0
LINE
  5
65
100
AcDbEntity
  8
1
370
     9
  6
Continuous
 62
     7
100
AcDbLine
 10
224.100152
 20
52.674418
 30
0.0
 11
223.582514
 21
54.60627
 31
0.0
  0
LINE
  5
66
100
AcDbEntity
  8
1
370
     9
  6
Continuous
 62
     7
100
AcDbLine
 10
224.100152
 20
52.674418
 30
0.0
 11
224.61779
 21
54.60627
 31
0.0
  0
LINE
  5
67
100
AcDbEntity
  8
1
370
     9
  6
Continuous
 62
     7
100
AcDbLine
 10
223.582514
 20
54.60627
 30
0.0
 11
224.61779
 21
54.60627
 31
0.0
  0
LINE
  5
68
100
AcDbEntity
  8
1
370
     9
  6
Continuous
 62
     7
100
AcDbLine
 10
224.100152
 20
53.157381
 30
0.0
 11
223.841333
 21
54.123307
 31
0.0
  0
LINE
  5
69
100
AcDbEntity
  8
1
370
     9
  6
Continuous
 62
     7
100
AcDbLine
 10
224.100152
 20
53.157381
 30
0.0
 11
224.358971
 21
54.123307
 31
0.0
  0
LINE
  5
6A
100
AcDbEntity
  8
1
370
     9
  6
Continuous
 62
     7
100
AcDbLine
 10
223.841333
 20
54.123307
 30
0.0
 11
224.358971
 21
54.123307
 31
0.0
  0
TEXT
  5
6B
100
AcDbEntity
  8
1
370
     9
  6
Continuous
 62
     7
100
AcDbText
 10
224.100152
 20
51.424418
 30
0.0
 40
5.0
  1
1
 50
90.0
 41
0.3
 51
15.0
 11
224.100152
 21
51.424418
 31
0.0
100
AcDbText
 73
     1
  0
ENDBLK
  5
6C
100
AcDbEntity
  8
1
370
     9
  6
Continuous
 62
     7
100
AcDbBlockEnd
  0
BLOCK
  5
BB
100
AcDbEntity
  8
1
370
     9
  6
Continuous
 62
     7
100
AcDbBlockBegin
  2
*D3
 70
     0
 10
0.0
 20
0.0
 30
0.0
  3
*D3
  1

  0
LINE
  5
BC
100
AcDbEntity
  8
1
370
     9
  6
Continuous
 62
     7
100
AcDbLine
 10
24.035882
 20
114.674418
 30
0.0
 11
24.035882
 21
164.674418
 31
0.0
  0
LINE
  5
BD
100
AcDbEntity
  8
1
370
     9
  6
Continuous
 62
     7
100
AcDbLine
 10
22.035882
 20
114.674418
 30
0.0
 11
35.946161
 21
114.674418
 31
0.0
  0
LINE
  5
BE
100
AcDbEntity
  8
1
370
     9
  6
Continuous
 62
     7
100
AcDbLine
 10
22.035882
 20
164.674418
 30
0.0
 11
35.884199
 21
164.674418
 31
0.0
  0
LINE
  5
BF
100
AcDbEntity
  8
1
370
     9
  6
Continuous
 62
     7
100
AcDbLine
 10
24.035882
 20
114.674418
 30
0.0
 11
23.518244
 21
116.60627
 31
0.0
  0
LINE
  5
C0
100
AcDbEntity
  8
1
370
     9
  6
Continuous
 62
     7
100
AcDbLine
 10
24.035882
 20
114.674418
 30
0.0
 11
24.55352
 21
116.60627
 31
0.0
  0
LINE
  5
C1
100
AcDbEntity
  8
1
370
     9
  6
Continuous
 62
     7
100
AcDbLine
 10
23.518244
 20
116.60627
 30
0.0
 11
24.55352
 21
116.60627
 31
0.0
  0
LINE
  5
C2
100
AcDbEntity
  8
1
370
     9
  6
Continuous
 62
     7
100
AcDbLine
 10
24.035882
 20
115.157381
 30
0.0
 11
23.777063
 21
116.123307
 31
0.0
  0
LINE
  5
C3
100
AcDbEntity
  8
1
370
     9
  6
Continuous
 62
     7
100
AcDbLine
 10
24.035882
 20
115.157381
 30
0.0
 11
24.294701
 21
116.123307
 31
0.0
  0
LINE
  5
C4
100
AcDbEntity
  8
1
370
     9
  6
Continuous
 62
     7
100
AcDbLine
 10
23.777063
 20
116.123307
 30
0.0
 11
24.294701
 21
116.123307
 31
0.0
  0
LINE
  5
C5
100
AcDbEntity
  8
1
370
     9
  6
Continuous
 62
     7
100
AcDbLine
 10
24.035882
 20
164.674418
 30
0.0
 11
24.55352
 21
162.742567
 31
0.0
  0
LINE
  5
C6
100
AcDbEntity
  8
1
370
     9
  6
Continuous
 62
     7
100
AcDbLine
 10
24.035882
 20
164.674418
 30
0.0
 11
23.518244
 21
162.742567
 31
0.0
  0
LINE
  5
C7
100
AcDbEntity
  8
1
370
     9
  6
Continuous
 62
     7
100
AcDbLine
 10
24.55352
 20
162.742567
 30
0.0
 11
23.518244
 21
162.742567
 31
0.0
  0
LINE
  5
C8
100
AcDbEntity
  8
1
370
     9
  6
Continuous
 62
     7
100
AcDbLine
 10
24.035882
 20
164.191456
 30
0.0
 11
24.294701
 21
163.22553
 31
0.0
  0
LINE
  5
C9
100
AcDbEntity
  8
1
370
     9
  6
Continuous
 62
     7
100
AcDbLine
 10
24.035882
 20
164.191456
 30
0.0
 11
23.777063
 21
163.22553
 31
0.0
  0
LINE
  5
CA
100
AcDbEntity
  8
1
370
     9
  6
Continuous
 62
     7
100
AcDbLine
 10
24.294701
 20
163.22553
 30
0.0
 11
23.777063
 21
163.22553
 31
0.0
  0
TEXT
  5
CB
100
AcDbEntity
  8
1
370
     9
  6
Continuous
 62
     7
100
AcDbText
 10
24.035882
 20
136.674418
 30
0.0
 40
5.0
  1
□50
 50
90.0
 41
0.6
 51
15.0
 11
24.035882
 21
136.674418
 31
0.0
100
AcDbText
 73
     1
  0
ENDBLK
  5
CC
100
AcDbEntity
  8
1
370
     9
  6
Continuous
 62
     7
100
AcDbBlockEnd
  0
BLOCK
  5
CF
100
AcDbEntity
  8
1
370
     9
  6
Continuous
 62
     7
100
AcDbBlockBegin
  2
*D4
 70
     0
 10
0.0
 20
0.0
 30
0.0
  3
*D4
  1

  0
LINE
  5
D0
100
AcDbEntity
  8
1
370
     9
  6
Continuous
 62
     7
100
AcDbLine
 10
83.15879
 20
109.674418
 30
0.0
 11
83.15879
 21
169.674418
 31
0.0
  0
LINE
  5
D1
100
AcDbEntity
  8
1
370
     9
  6
Continuous
 62
     7
100
AcDbLine
 10
85.15879
 20
109.674418
 30
0.0
 11
70.697985
 21
109.674418
 31
0.0
  0
LINE
  5
D2
100
AcDbEntity
  8
1
370
     9
  6
Continuous
 62
     7
100
AcDbLine
 10
85.15879
 20
169.674418
 30
0.0
 11
70.697985
 21
169.674418
 31
0.0
  0
LINE
  5
D3
100
AcDbEntity
  8
1
370
     9
  6
Continuous
 62
     7
100
AcDbLine
 10
83.15879
 20
109.674418
 30
0.0
 11
82.641152
 21
111.60627
 31
0.0
  0
LINE
  5
D4
100
AcDbEntity
  8
1
370
     9
  6
Continuous
 62
     7
100
AcDbLine
 10
83.15879
 20
109.674418
 30
0.0
 11
83.676428
 21
111.60627
 31
0.0
  0
LINE
  5
D5
100
AcDbEntity
  8
1
370
     9
  6
Continuous
 62
     7
100
AcDbLine
 10
82.641152
 20
111.60627
 30
0.0
 11
83.676428
 21
111.60627
 31
0.0
  0
LINE
  5
D6
100
AcDbEntity
  8
1
370
     9
  6
Continuous
 62
     7
100
AcDbLine
 10
83.15879
 20
110.157381
 30
0.0
 11
82.899971
 21
111.123307
 31
0.0
  0
LINE
  5
D7
100
AcDbEntity
  8
1
370
     9
  6
Continuous
 62
     7
100
AcDbLine
 10
83.15879
 20
110.157381
 30
0.0
 11
83.417609
 21
111.123307
 31
0.0
  0
LINE
  5
D8
100
AcDbEntity
  8
1
370
     9
  6
Continuous
 62
     7
100
AcDbLine
 10
82.899971
 20
111.123307
 30
0.0
 11
83.417609
 21
111.123307
 31
0.0
  0
LINE
  5
D9
100
AcDbEntity
  8
1
370
     9
  6
Continuous
 62
     7
100
AcDbLine
 10
83.15879
 20
169.674418
 30
0.0
 11
83.676428
 21
167.742567
 31
0.0
  0
LINE
  5
DA
100
AcDbEntity
  8
1
370
     9
  6
Continuous
 62
     7
100
AcDbLine
 10
83.15879
 20
169.674418
 30
0.0
 11
82.641152
 21
167.742567
 31
0.0
  0
LINE
  5
DB
100
AcDbEntity
  8
1
370
     9
  6
Continuous
 62
     7
100
AcDbLine
 10
83.676428
 20
167.742567
 30
0.0
 11
82.641152
 21
167.742567
 31
0.0
  0
LINE
  5
DC
100
AcDbEntity
  8
1
370
     9
  6
Continuous
 62
     7
100
AcDbLine
 10
83.15879
 20
169.191455
 30
0.0
 11
83.417609
 21
168.22553
 31
0.0
  0
LINE
  5
DD
100
AcDbEntity
  8
1
370
     9
  6
Continuous
 62
     7
100
AcDbLine
 10
83.15879
 20
169.191455
 30
0.0
 11
82.899971
 21
168.22553
 31
0.0
  0
LINE
  5
DE
100
AcDbEntity
  8
1
370
     9
  6
Continuous
 62
     7
100
AcDbLine
 10
83.417609
 20
168.22553
 30
0.0
 11
82.899971
 21
168.22553
 31
0.0
  0
TEXT
  5
DF
100
AcDbEntity
  8
1
370
     9
  6
Continuous
 62
     7
100
AcDbText
 10
83.15879
 20
138.174418
 30
0.0
 40
5.0
  1
60
 50
90.0
 41
0.3
 51
15.0
 11
83.15879
 21
138.174418
 31
0.0
100
AcDbText
 73
     1
  0
ENDBLK
  5
E0
100
AcDbEntity
  8
1
370
     9
  6
Continuous
 62
     7
100
AcDbBlockEnd
  0
BLOCK
  5
E3
100
AcDbEntity
  8
1
370
     9
  6
Continuous
 62
     7
100
AcDbBlockBegin
  2
*D5
 70
     0
 10
0.0
 20
0.0
 30
0.0
  3
*D5
  1

  0
LINE
  5
E4
100
AcDbEntity
  8
1
370
     9
  6
Continuous
 62
     7
100
AcDbLine
 10
83.15879
 20
92.674418
 30
0.0
 11
83.15879
 21
109.674418
 31
0.0
  0
LINE
  5
E5
100
AcDbEntity
  8
1
370
     9
  6
Continuous
 62
     7
100
AcDbLine
 10
85.15879
 20
92.674418
 30
0.0
 11
69.697985
 21
92.674418
 31
0.0
  0
LINE
  5
E6
100
AcDbEntity
  8
1
370
     9
  6
Continuous
 62
     7
100
AcDbLine
 10
85.15879
 20
109.674418
 30
0.0
 11
70.697985
 21
109.674418
 31
0.0
  0
LINE
  5
E7
100
AcDbEntity
  8
1
370
     9
  6
Continuous
 62
     7
100
AcDbLine
 10
83.15879
 20
92.674418
 30
0.0
 11
82.641152
 21
94.60627
 31
0.0
  0
LINE
  5
E8
100
AcDbEntity
  8
1
370
     9
  6
Continuous
 62
     7
100
AcDbLine
 10
83.15879
 20
92.674418
 30
0.0
 11
83.676428
 21
94.60627
 31
0.0
  0
LINE
  5
E9
100
AcDbEntity
  8
1
370
     9
  6
Continuous
 62
     7
100
AcDbLine
 10
82.641152
 20
94.60627
 30
0.0
 11
83.676428
 21
94.60627
 31
0.0
  0
LINE
  5
EA
100
AcDbEntity
  8
1
370
     9
  6
Continuous
 62
     7
100
AcDbLine
 10
83.15879
 20
93.157381
 30
0.0
 11
82.899971
 21
94.123307
 31
0.0
  0
LINE
  5
EB
100
AcDbEntity
  8
1
370
     9
  6
Continuous
 62
     7
100
AcDbLine
 10
83.15879
 20
93.157381
 30
0.0
 11
83.417609
 21
94.123307
 31
0.0
  0
LINE
  5
EC
100
AcDbEntity
  8
1
370
     9
  6
Continuous
 62
     7
100
AcDbLine
 10
82.899971
 20
94.123307
 30
0.0
 11
83.417609
 21
94.123307
 31
0.0
  0
LINE
  5
ED
100
AcDbEntity
  8
1
370
     9
  6
Continuous
 62
     7
100
AcDbLine
 10
83.15879
 20
109.674418
 30
0.0
 11
83.676428
 21
107.742567
 31
0.0
  0
LINE
  5
EE
100
AcDbEntity
  8
1
370
     9
  6
Continuous
 62
     7
100
AcDbLine
 10
83.15879
 20
109.674418
 30
0.0
 11
82.641152
 21
107.742567
 31
0.0
  0
LINE
  5
EF
100
AcDbEntity
  8
1
370
     9
  6
Continuous
 62
     7
100
AcDbLine
 10
83.676428
 20
107.742567
 30
0.0
 11
82.641152
 21
107.742567
 31
0.0
  0
LINE
  5
F0
100
AcDbEntity
  8
1
370
     9
  6
Continuous
 62
     7
100
AcDbLine
 10
83.15879
 20
109.191456
 30
0.0
 11
83.417609
 21
108.22553
 31
0.0
  0
LINE
  5
F1
100
AcDbEntity
  8
1
370
     9
  6
Continuous
 62
     7
100
AcDbLine
 10
83.15879
 20
109.191456
 30
0.0
 11
82.899971
 21
108.22553
 31
0.0
  0
LINE
  5
F2
100
AcDbEntity
  8
1
370
     9
  6
Continuous
 62
     7
100
AcDbLine
 10
83.417609
 20
108.22553
 30
0.0
 11
82.899971
 21
108.22553
 31
0.0
  0
TEXT
  5
F3
100
AcDbEntity
  8
1
370
     9
  6
Continuous
 62
     7
100
AcDbText
 10
83.15879
 20
99.674418
 30
0.0
 40
5.0
  1
17
 50
90.0
 41
0.3
 51
15.0
 11
83.15879
 21
99.674418
 31
0.0
100
AcDbText
 73
     1
  0
ENDBLK
  5
F4
100
AcDbEntity
  8
1
370
     9
  6
Continuous
 62
     7
100
AcDbBlockEnd
  0
BLOCK
  5
F7
100
AcDbEntity
  8
1
370
     9
  6
Continuous
 62
     7
100
AcDbBlockBegin
  2
*D6
 70
     0
 10
0.0
 20
0.0
 30
0.0
  3
*D6
  1

  0
LINE
  5
F8
100
AcDbEntity
  8
1
370
     9
  6
Continuous
 62
     7
100
AcDbLine
 10
131.505592
 20
22.674418
 30
0.0
 11
131.505592
 21
52.674418
 31
0.0
  0
LINE
  5
F9
100
AcDbEntity
  8
1
370
     9
  6
Continuous
 62
     7
100
AcDbLine
 10
129.505592
 20
22.674418
 30
0.0
 11
147.697985
 21
22.674418
 31
0.0
  0
LINE
  5
FA
100
AcDbEntity
  8
1
370
     9
  6
Continuous
 62
     7
100
AcDbLine
 10
129.505592
 20
52.674418
 30
0.0
 11
148.697985
 21
52.674418
 31
0.0
  0
LINE
  5
FB
100
AcDbEntity
  8
1
370
     9
  6
Continuous
 62
     7
100
AcDbLine
 10
131.505592
 20
22.674418
 30
0.0
 11
130.987954
 21
24.60627
 31
0.0
  0
LINE
  5
FC
100
AcDbEntity
  8
1
370
     9
  6
Continuous
 62
     7
100
AcDbLine
 10
131.505592
 20
22.674418
 30
0.0
 11
132.02323
 21
24.60627
 31
0.0
  0
LINE
  5
FD
100
AcDbEntity
  8
1
370
     9
  6
Continuous
 62
     7
100
AcDbLine
 10
130.987954
 20
24.60627
 30
0.0
 11
132.02323
 21
24.60627
 31
0.0
  0
LINE
  5
FE
100
AcDbEntity
  8
1
370
     9
  6
Continuous
 62
     7
100
AcDbLine
 10
131.505592
 20
23.157381
 30
0.0
 11
131.246773
 21
24.123307
 31
0.0
  0
LINE
  5
FF
100
AcDbEntity
  8
1
370
     9
  6
Continuous
 62
     7
100
AcDbLine
 10
131.505592
 20
23.157381
 30
0.0
 11
131.764411
 21
24.123307
 31
0.0
  0
LINE
  5
100
100
AcDbEntity
  8
1
370
     9
  6
Continuous
 62
     7
100
AcDbLine
 10
131.246773
 20
24.123307
 30
0.0
 11
131.764411
 21
24.123307
 31
0.0
  0
LINE
  5
101
100
AcDbEntity
  8
1
370
     9
  6
Continuous
 62
     7
100
AcDbLine
 10
131.505592
 20
52.674418
 30
0.0
 11
132.02323
 21
50.742567
 31
0.0
  0
LINE
  5
102
100
AcDbEntity
  8
1
370
     9
  6
Continuous
 62
     7
100
AcDbLine
 10
131.505592
 20
52.674418
 30
0.0
 11
130.987954
 21
50.742567
 31
0.0
  0
LINE
  5
103
100
AcDbEntity
  8
1
370
     9
  6
Continuous
 62
     7
100
AcDbLine
 10
132.02323
 20
50.742567
 30
0.0
 11
130.987954
 21
50.742567
 31
0.0
  0
LINE
  5
104
100
AcDbEntity
  8
1
370
     9
  6
Continuous
 62
     7
100
AcDbLine
 10
131.505592
 20
52.191456
 30
0.0
 11
131.764411
 21
51.22553
 31
0.0
  0
LINE
  5
105
100
AcDbEntity
  8
1
370
     9
  6
Continuous
 62
     7
100
AcDbLine
 10
131.505592
 20
52.191456
 30
0.0
 11
131.246773
 21
51.22553
 31
0.0
  0
LINE
  5
106
100
AcDbEntity
  8
1
370
     9
  6
Continuous
 62
     7
100
AcDbLine
 10
131.764411
 20
51.22553
 30
0.0
 11
131.246773
 21
51.22553
 31
0.0
  0
TEXT
  5
107
100
AcDbEntity
  8
1
370
     9
  6
Continuous
 62
     7
100
AcDbText
 10
131.505592
 20
36.174418
 30
0.0
 40
5.0
  1
30
 50
90.0
 41
0.3
 51
15.0
 11
131.505592
 21
36.174418
 31
0.0
100
AcDbText
 73
     1
  0
ENDBLK
  5
108
100
AcDbEntity
  8
1
370
     9
  6
Continuous
 62
     7
100
AcDbBlockEnd
  0
BLOCK
  5
10B
100
AcDbEntity
  8
1
370
     9
  6
Continuous
 62
     7
100
AcDbBlockBegin
  2
*D7
 70
     0
 10
0.0
 20
0.0
 30
0.0
  3
*D7
  1

  0
LINE
  5
10C
100
AcDbEntity
  8
1
370
     9
  6
Continuous
 62
     7
100
AcDbLine
 10
140.170804
 20
22.674418
 30
0.0
 11
140.170804
 21
37.674418
 31
0.0
  0
LINE
  5
10D
100
AcDbEntity
  8
1
370
     9
  6
Continuous
 62
     7
100
AcDbLine
 10
138.170804
 20
22.674418
 30
0.0
 11
147.697985
 21
22.674418
 31
0.0
  0
LINE
  5
10E
100
AcDbEntity
  8
1
370
     9
  6
Continuous
 62
     7
100
AcDbLine
 10
138.170804
 20
37.674418
 30
0.0
 11
146.824173
 21
37.674418
 31
0.0
  0
LINE
  5
10F
100
AcDbEntity
  8
1
370
     9
  6
Continuous
 62
     7
100
AcDbLine
 10
140.170804
 20
22.674418
 30
0.0
 11
139.653165
 21
24.60627
 31
0.0
  0
LINE
  5
110
100
AcDbEntity
  8
1
370
     9
  6
Continuous
 62
     7
100
AcDbLine
 10
140.170804
 20
22.674418
 30
0.0
 11
140.688442
 21
24.60627
 31
0.0
  0
LINE
  5
111
100
AcDbEntity
  8
1
370
     9
  6
Continuous
 62
     7
100
AcDbLine
 10
139.653165
 20
24.60627
 30
0.0
 11
140.688442
 21
24.60627
 31
0.0
  0
LINE
  5
112
100
AcDbEntity
  8
1
370
     9
  6
Continuous
 62
     7
100
AcDbLine
 10
140.170804
 20
23.157381
 30
0.0
 11
139.911985
 21
24.123307
 31
0.0
  0
LINE
  5
113
100
AcDbEntity
  8
1
370
     9
  6
Continuous
 62
     7
100
AcDbLine
 10
140.170804
 20
23.157381
 30
0.0
 11
140.429623
 21
24.123307
 31
0.0
  0
LINE
  5
114
100
AcDbEntity
  8
1
370
     9
  6
Continuous
 62
     7
100
AcDbLine
 10
139.911985
 20
24.123307
 30
0.0
 11
140.429623
 21
24.123307
 31
0.0
  0
LINE
  5
115
100
AcDbEntity
  8
1
370
     9
  6
Continuous
 62
     7
100
AcDbLine
 10
140.170804
 20
37.674418
 30
0.0
 11
140.688442
 21
35.742567
 31
0.0
  0
LINE
  5
116
100
AcDbEntity
  8
1
370
     9
  6
Continuous
 62
     7
100
AcDbLine
 10
140.170804
 20
37.674418
 30
0.0
 11
139.653165
 21
35.742567
 31
0.0
  0
LINE
  5
117
100
AcDbEntity
  8
1
370
     9
  6
Continuous
 62
     7
100
AcDbLine
 10
140.688442
 20
35.742567
 30
0.0
 11
139.653165
 21
35.742567
 31
0.0
  0
LINE
  5
118
100
AcDbEntity
  8
1
370
     9
  6
Continuous
 62
     7
100
AcDbLine
 10
140.170804
 20
37.191456
 30
0.0
 11
140.429623
 21
36.22553
 31
0.0
  0
LINE
  5
119
100
AcDbEntity
  8
1
370
     9
  6
Continuous
 62
     7
100
AcDbLine
 10
140.170804
 20
37.191456
 30
0.0
 11
139.911985
 21
36.22553
 31
0.0
  0
LINE
  5
11A
100
AcDbEntity
  8
1
370
     9
  6
Continuous
 62
     7
100
AcDbLine
 10
140.429623
 20
36.22553
 30
0.0
 11
139.911985
 21
36.22553
 31
0.0
  0
TEXT
  5
11B
100
AcDbEntity
  8
1
370
     9
  6
Continuous
 62
     7
100
AcDbText
 10
140.170804
 20
28.674418
 30
0.0
 40
5.0
  1
15
 50
90.0
 41
0.3
 51
15.0
 11
140.170804
 21
28.674418
 31
0.0
100
AcDbText
 73
     1
  0
ENDBLK
  5
11C
100
AcDbEntity
  8
1
370
     9
  6
Continuous
 62
     7
100
AcDbBlockEnd
  0
BLOCK
  5
11F
100
AcDbEntity
  8
1
370
     9
  6
Continuous
 62
     7
100
AcDbBlockBegin
  2
*D8
 70
     0
 10
0.0
 20
0.0
 30
0.0
  3
*D8
  1

  0
LINE
  5
120
100
AcDbEntity
  8
1
370
     9
  6
Continuous
 62
     7
100
AcDbLine
 10
121.570002
 20
114.674418
 30
0.0
 11
121.570002
 21
164.674418
 31
0.0
  0
LINE
  5
121
100
AcDbEntity
  8
1
370
     9
  6
Continuous
 62
     7
100
AcDbLine
 10
119.570002
 20
114.674418
 30
0.0
 11
149.697985
 21
114.674418
 31
0.0
  0
LINE
  5
122
100
AcDbEntity
  8
1
370
     9
  6
Continuous
 62
     7
100
AcDbLine
 10
119.570002
 20
164.674418
 30
0.0
 11
149.697985
 21
164.674418
 31
0.0
  0
LINE
  5
123
100
AcDbEntity
  8
1
370
     9
  6
Continuous
 62
     7
100
AcDbLine
 10
121.570002
 20
114.674418
 30
0.0
 11
121.052364
 21
116.60627
 31
0.0
  0
LINE
  5
124
100
AcDbEntity
  8
1
370
     9
  6
Continuous
 62
     7
100
AcDbLine
 10
121.570002
 20
114.674418
 30
0.0
 11
122.08764
 21
116.60627
 31
0.0
  0
LINE
  5
125
100
AcDbEntity
  8
1
370
     9
  6
Continuous
 62
     7
100
AcDbLine
 10
121.052364
 20
116.60627
 30
0.0
 11
122.08764
 21
116.60627
 31
0.0
  0
LINE
  5
126
100
AcDbEntity
  8
1
370
     9
  6
Continuous
 62
     7
100
AcDbLine
 10
121.570002
 20
115.157381
 30
0.0
 11
121.311183
 21
116.123307
 31
0.0
  0
LINE
  5
127
100
AcDbEntity
  8
1
370
     9
  6
Continuous
 62
     7
100
AcDbLine
 10
121.570002
 20
115.157381
 30
0.0
 11
121.828821
 21
116.123307
 31
0.0
  0
LINE
  5
128
100
AcDbEntity
  8
1
370
     9
  6
Continuous
 62
     7
100
AcDbLine
 10
121.311183
 20
116.123307
 30
0.0
 11
121.828821
 21
116.123307
 31
0.0
  0
LINE
  5
129
100
AcDbEntity
  8
1
370
     9
  6
Continuous
 62
     7
100
AcDbLine
 10
121.570002
 20
164.674418
 30
0.0
 11
122.08764
 21
162.742567
 31
0.0
  0
LINE
  5
12A
100
AcDbEntity
  8
1
370
     9
  6
Continuous
 62
     7
100
AcDbLine
 10
121.570002
 20
164.674418
 30
0.0
 11
121.052364
 21
162.742567
 31
0.0
  0
LINE
  5
12B
100
AcDbEntity
  8
1
370
     9
  6
Continuous
 62
     7
100
AcDbLine
 10
122.08764
 20
162.742567
 30
0.0
 11
121.052364
 21
162.742567
 31
0.0
  0
LINE
  5
12C
100
AcDbEntity
  8
1
370
     9
  6
Continuous
 62
     7
100
AcDbLine
 10
121.570002
 20
164.191456
 30
0.0
 11
121.828821
 21
163.22553
 31
0.0
  0
LINE
  5
12D
100
AcDbEntity
  8
1
370
     9
  6
Continuous
 62
     7
100
AcDbLine
 10
121.570002
 20
164.191456
 30
0.0
 11
121.311183
 21
163.22553
 31
0.0
  0
LINE
  5
12E
100
AcDbEntity
  8
1
370
     9
  6
Continuous
 62
     7
100
AcDbLine
 10
121.828821
 20
163.22553
 30
0.0
 11
121.311183
 21
163.22553
 31
0.0
  0
TEXT
  5
12F
100
AcDbEntity
  8
1
370
     9
  6
Continuous
 62
     7
100
AcDbText
 10
121.570002
 20
136.674418
 30
0.0
 40
5.0
  1
□50
 50
90.0
 41
0.6
 51
15.0
 11
121.570002
 21
136.674418
 31
0.0
100
AcDbText
 73
     1
  0
ENDBLK
  5
130
100
AcDbEntity
  8
1
370
     9
  6
Continuous
 62
     7
100
AcDbBlockEnd
  0
BLOCK
  5
133
100
AcDbEntity
  8
1
370
     9
  6
Continuous
 62
     7
100
AcDbBlockBegin
  2
*D9
 70
     0
 10
0.0
 20
0.0
 30
0.0
  3
*D9
  1

  0
LINE
  5
134
100
AcDbEntity
  8
1
370
     9
  6
Continuous
 62
     7
100
AcDbLine
 10
128.95545
 20
123.674418
 30
0.0
 11
128.95545
 21
155.674418
 31
0.0
  0
LINE
  5
135
100
AcDbEntity
  8
1
370
     9
  6
Continuous
 62
     7
100
AcDbLine
 10
126.95545
 20
123.674418
 30
0.0
 11
159.697985
 21
123.674418
 31
0.0
  0
LINE
  5
136
100
AcDbEntity
  8
1
370
     9
  6
Continuous
 62
     7
100
AcDbLine
 10
126.95545
 20
155.674418
 30
0.0
 11
159.697985
 21
155.674418
 31
0.0
  0
LINE
  5
137
100
AcDbEntity
  8
1
370
     9
  6
Continuous
 62
     7
100
AcDbLine
 10
128.95545
 20
123.674418
 30
0.0
 11
128.437812
 21
125.60627
 31
0.0
  0
LINE
  5
138
100
AcDbEntity
  8
1
370
     9
  6
Continuous
 62
     7
100
AcDbLine
 10
128.95545
 20
123.674418
 30
0.0
 11
129.473088
 21
125.60627
 31
0.0
  0
LINE
  5
139
100
AcDbEntity
  8
1
370
     9
  6
Continuous
 62
     7
100
AcDbLine
 10
128.437812
 20
125.60627
 30
0.0
 11
129.473088
 21
125.60627
 31
0.0
  0
LINE
  5
13A
100
AcDbEntity
  8
1
370
     9
  6
Continuous
 62
     7
100
AcDbLine
 10
128.95545
 20
124.157381
 30
0.0
 11
128.696631
 21
125.123307
 31
0.0
  0
LINE
  5
13B
100
AcDbEntity
  8
1
370
     9
  6
Continuous
 62
     7
100
AcDbLine
 10
128.95545
 20
124.157381
 30
0.0
 11
129.214269
 21
125.123307
 31
0.0
  0
LINE
  5
13C
100
AcDbEntity
  8
1
370
     9
  6
Continuous
 62
     7
100
AcDbLine
 10
128.696631
 20
125.123307
 30
0.0
 11
129.214269
 21
125.123307
 31
0.0
  0
LINE
  5
13D
100
AcDbEntity
  8
1
370
     9
  6
Continuous
 62
     7
100
AcDbLine
 10
128.95545
 20
155.674418
 30
0.0
 11
129.473088
 21
153.742567
 31
0.0
  0
LINE
  5
13E
100
AcDbEntity
  8
1
370
     9
  6
Continuous
 62
     7
100
AcDbLine
 10
128.95545
 20
155.674418
 30
0.0
 11
128.437812
 21
153.742567
 31
0.0
  0
LINE
  5
13F
100
AcDbEntity
  8
1
370
     9
  6
Continuous
 62
     7
100
AcDbLine
 10
129.473088
 20
153.742567
 30
0.0
 11
128.437812
 21
153.742567
 31
0.0
  0
LINE
  5
140
100
AcDbEntity
  8
1
370
     9
  6
Continuous
 62
     7
100
AcDbLine
 10
128.95545
 20
155.191456
 30
0.0
 11
129.214269
 21
154.22553
 31
0.0
  0
LINE
  5
141
100
AcDbEntity
  8
1
370
     9
  6
Continuous
 62
     7
100
AcDbLine
 10
128.95545
 20
155.191456
 30
0.0
 11
128.696631
 21
154.22553
 31
0.0
  0
LINE
  5
142
100
AcDbEntity
  8
1
370
     9
  6
Continuous
 62
     7
100
AcDbLine
 10
129.214269
 20
154.22553
 30
0.0
 11
128.696631
 21
154.22553
 31
0.0
  0
TEXT
  5
143
100
AcDbEntity
  8
1
370
     9
  6
Continuous
 62
     7
100
AcDbText
 10
128.95545
 20
136.674418
 30
0.0
 40
5.0
  1
□32
 50
90.0
 41
0.6
 51
15.0
 11
128.95545
 21
136.674418
 31
0.0
100
AcDbText
 73
     1
  0
ENDBLK
  5
144
100
AcDbEntity
  8
1
370
     9
  6
Continuous
 62
     7
100
AcDbBlockEnd
  0
BLOCK
  5
147
100
AcDbEntity
  8
1
370
     9
  6
Continuous
 62
     7
100
AcDbBlockBegin
  2
*D10
 70
     0
 10
0.0
 20
0.0
 30
0.0
  3
*D10
  1

  0
LINE
  5
148
100
AcDbEntity
  8
1
370
     9
  6
Continuous
 62
     7
100
AcDbLine
 10
149.697985
 20
188.252258
 30
0.0
 11
209.697985
 21
188.252258
 31
0.0
  0
LINE
  5
149
100
AcDbEntity
  8
1
370
     9
  6
Continuous
 62
     7
100
AcDbLine
 10
149.697985
 20
190.252258
 30
0.0
 11
149.697985
 21
170.674418
 31
0.0
  0
LINE
  5
14A
100
AcDbEntity
  8
1
370
     9
  6
Continuous
 62
     7
100
AcDbLine
 10
209.697985
 20
190.252258
 30
0.0
 11
209.697985
 21
170.674418
 31
0.0
  0
LINE
  5
14B
100
AcDbEntity
  8
1
370
     9
  6
Continuous
 62
     7
100
AcDbLine
 10
149.697985
 20
188.252258
 30
0.0
 11
151.629836
 21
188.769896
 31
0.0
  0
LINE
  5
14C
100
AcDbEntity
  8
1
370
     9
  6
Continuous
 62
     7
100
AcDbLine
 10
149.697985
 20
188.252258
 30
0.0
 11
151.629836
 21
187.73462
 31
0.0
  0
LINE
  5
14D
100
AcDbEntity
  8
1
370
     9
  6
Continuous
 62
     7
100
AcDbLine
 10
151.629836
 20
188.769896
 30
0.0
 11
151.629836
 21
187.73462
 31
0.0
  0
LINE
  5
14E
100
AcDbEntity
  8
1
370
     9
  6
Continuous
 62
     7
100
AcDbLine
 10
150.180948
 20
188.252258
 30
0.0
 11
151.146873
 21
188.511077
 31
0.0
  0
LINE
  5
14F
100
AcDbEntity
  8
1
370
     9
  6
Continuous
 62
     7
100
AcDbLine
 10
150.180948
 20
188.252258
 30
0.0
 11
151.146873
 21
187.993439
 31
0.0
  0
LINE
  5
150
100
AcDbEntity
  8
1
370
     9
  6
Continuous
 62
     7
100
AcDbLine
 10
151.146873
 20
188.511077
 30
0.0
 11
151.146873
 21
187.993439
 31
0.0
  0
LINE
  5
151
100
AcDbEntity
  8
1
370
     9
  6
Continuous
 62
     7
100
AcDbLine
 10
209.697985
 20
188.252258
 30
0.0
 11
207.766133
 21
187.73462
 31
0.0
  0
LINE
  5
152
100
AcDbEntity
  8
1
370
     9
  6
Continuous
 62
     7
100
AcDbLine
 10
209.697985
 20
188.252258
 30
0.0
 11
207.766133
 21
188.769896
 31
0.0
  0
LINE
  5
153
100
AcDbEntity
  8
1
370
     9
  6
Continuous
 62
     7
100
AcDbLine
 10
207.766133
 20
187.73462
 30
0.0
 11
207.766133
 21
188.769896
 31
0.0
  0
LINE
  5
154
100
AcDbEntity
  8
1
370
     9
  6
Continuous
 62
     7
100
AcDbLine
 10
209.215022
 20
188.252258
 30
0.0
 11
208.249096
 21
187.993439
 31
0.0
  0
LINE
  5
155
100
AcDbEntity
  8
1
370
     9
  6
Continuous
 62
     7
100
AcDbLine
 10
209.215022
 20
188.252258
 30
0.0
 11
208.249096
 21
188.511077
 31
0.0
  0
LINE
  5
156
100
AcDbEntity
  8
1
370
     9
  6
Continuous
 62
     7
100
AcDbLine
 10
208.249096
 20
187.993439
 30
0.0
 11
208.249096
 21
188.511077
 31
0.0
  0
TEXT
  5
157
100
AcDbEntity
  8
1
370
     9
  6
Continuous
 62
     7
100
AcDbText
 10
176.697985
 20
188.252258
 30
0.0
 40
5.0
  1
□60
 41
0.6
 51
15.0
 11
176.697985
 21
188.252258
 31
0.0
100
AcDbText
 73
     1
  0
ENDBLK
  5
158
100
AcDbEntity
  8
1
370
     9
  6
Continuous
 62
     7
100
AcDbBlockEnd
  0
BLOCK
  5
15B
100
AcDbEntity
  8
1
370
     9
  6
Continuous
 62
     7
100
AcDbBlockBegin
  2
*D11
 70
     0
 10
0.0
 20
0.0
 30
0.0
  3
*D11
  1

  0
LINE
  5
15C
100
AcDbEntity
  8
1
370
     9
  6
Continuous
 62
     7
100
AcDbLine
 10
219.697985
 20
179.128733
 30
0.0
 11
209.697985
 21
179.128733
 31
0.0
  0
LINE
  5
15D
100
AcDbEntity
  8
1
370
     9
  6
Continuous
 62
     7
100
AcDbLine
 10
219.697985
 20
181.128733
 30
0.0
 11
219.697985
 21
170.674418
 31
0.0
  0
LINE
  5
15E
100
AcDbEntity
  8
1
370
     9
  6
Continuous
 62
     7
100
AcDbLine
 10
209.697985
 20
181.128733
 30
0.0
 11
209.697985
 21
170.674418
 31
0.0
  0
LINE
  5
15F
100
AcDbEntity
  8
1
370
     9
  6
Continuous
 62
     7
100
AcDbLine
 10
219.697985
 20
179.128733
 30
0.0
 11
217.766133
 21
178.611095
 31
0.0
  0
LINE
  5
160
100
AcDbEntity
  8
1
370
     9
  6
Continuous
 62
     7
100
AcDbLine
 10
219.697985
 20
179.128733
 30
0.0
 11
217.766133
 21
179.646371
 31
0.0
  0
LINE
  5
161
100
AcDbEntity
  8
1
370
     9
  6
Continuous
 62
     7
100
AcDbLine
 10
217.766133
 20
178.611095
 30
0.0
 11
217.766133
 21
179.646371
 31
0.0
  0
LINE
  5
162
100
AcDbEntity
  8
1
370
     9
  6
Continuous
 62
     7
100
AcDbLine
 10
219.215022
 20
179.128733
 30
0.0
 11
218.249096
 21
178.869914
 31
0.0
  0
LINE
  5
163
100
AcDbEntity
  8
1
370
     9
  6
Continuous
 62
     7
100
AcDbLine
 10
219.215022
 20
179.128733
 30
0.0
 11
218.249096
 21
179.387552
 31
0.0
  0
LINE
  5
164
100
AcDbEntity
  8
1
370
     9
  6
Continuous
 62
     7
100
AcDbLine
 10
218.249096
 20
178.869914
 30
0.0
 11
218.249096
 21
179.387552
 31
0.0
  0
LINE
  5
165
100
AcDbEntity
  8
1
370
     9
  6
Continuous
 62
     7
100
AcDbLine
 10
209.697985
 20
179.128733
 30
0.0
 11
211.629836
 21
179.646371
 31
0.0
  0
LINE
  5
166
100
AcDbEntity
  8
1
370
     9
  6
Continuous
 62
     7
100
AcDbLine
 10
209.697985
 20
179.128733
 30
0.0
 11
211.629836
 21
178.611095
 31
0.0
  0
LINE
  5
167
100
AcDbEntity
  8
1
370
     9
  6
Continuous
 62
     7
100
AcDbLine
 10
211.629836
 20
179.646371
 30
0.0
 11
211.629836
 21
178.611095
 31
0.0
  0
LINE
  5
168
100
AcDbEntity
  8
1
370
     9
  6
Continuous
 62
     7
100
AcDbLine
 10
210.180948
 20
179.128733
 30
0.0
 11
211.146873
 21
179.387552
 31
0.0
  0
LINE
  5
169
100
AcDbEntity
  8
1
370
     9
  6
Continuous
 62
     7
100
AcDbLine
 10
210.180948
 20
179.128733
 30
0.0
 11
211.146873
 21
178.869914
 31
0.0
  0
LINE
  5
16A
100
AcDbEntity
  8
1
370
     9
  6
Continuous
 62
     7
100
AcDbLine
 10
211.146873
 20
179.387552
 30
0.0
 11
211.146873
 21
178.869914
 31
0.0
  0
TEXT
  5
16B
100
AcDbEntity
  8
1
370
     9
  6
Continuous
 62
     7
100
AcDbText
 10
211.697985
 20
179.128733
 30
0.0
 40
5.0
  1
10ST
 41
0.3
 51
15.0
 11
211.697985
 21
179.128733
 31
0.0
100
AcDbText
 73
     1
  0
ENDBLK
  5
16C
100
AcDbEntity
  8
1
370
     9
  6
Continuous
 62
     7
100
AcDbBlockEnd
  0
BLOCK
  5
16F
100
AcDbEntity
  8
1
370
     9
  6
Continuous
 62
     7
100
AcDbBlockBegin
  2
*D12
 70
     0
 10
0.0
 20
0.0
 30
0.0
  3
*D12
  1

  0
LINE
  5
170
100
AcDbEntity
  8
1
370
     9
  6
Continuous
 62
     7
100
AcDbLine
 10
139.697985
 20
179.128733
 30
0.0
 11
149.697985
 21
179.128733
 31
0.0
  0
LINE
  5
171
100
AcDbEntity
  8
1
370
     9
  6
Continuous
 62
     7
100
AcDbLine
 10
139.697985
 20
181.128733
 30
0.0
 11
139.697985
 21
170.674418
 31
0.0
  0
LINE
  5
172
100
AcDbEntity
  8
1
370
     9
  6
Continuous
 62
     7
100
AcDbLine
 10
149.697985
 20
181.128733
 30
0.0
 11
149.697985
 21
170.674418
 31
0.0
  0
LINE
  5
173
100
AcDbEntity
  8
1
370
     9
  6
Continuous
 62
     7
100
AcDbLine
 10
139.697985
 20
179.128733
 30
0.0
 11
141.629836
 21
179.646371
 31
0.0
  0
LINE
  5
174
100
AcDbEntity
  8
1
370
     9
  6
Continuous
 62
     7
100
AcDbLine
 10
139.697985
 20
179.128733
 30
0.0
 11
141.629836
 21
178.611095
 31
0.0
  0
LINE
  5
175
100
AcDbEntity
  8
1
370
     9
  6
Continuous
 62
     7
100
AcDbLine
 10
141.629836
 20
179.646371
 30
0.0
 11
141.629836
 21
178.611095
 31
0.0
  0
LINE
  5
176
100
AcDbEntity
  8
1
370
     9
  6
Continuous
 62
     7
100
AcDbLine
 10
140.180948
 20
179.128733
 30
0.0
 11
141.146873
 21
179.387552
 31
0.0
  0
LINE
  5
177
100
AcDbEntity
  8
1
370
     9
  6
Continuous
 62
     7
100
AcDbLine
 10
140.180948
 20
179.128733
 30
0.0
 11
141.146873
 21
178.869914
 31
0.0
  0
LINE
  5
178
100
AcDbEntity
  8
1
370
     9
  6
Continuous
 62
     7
100
AcDbLine
 10
141.146873
 20
179.387552
 30
0.0
 11
141.146873
 21
178.869914
 31
0.0
  0
LINE
  5
179
100
AcDbEntity
  8
1
370
     9
  6
Continuous
 62
     7
100
AcDbLine
 10
149.697985
 20
179.128733
 30
0.0
 11
147.766133
 21
178.611095
 31
0.0
  0
LINE
  5
17A
100
AcDbEntity
  8
1
370
     9
  6
Continuous
 62
     7
100
AcDbLine
 10
149.697985
 20
179.128733
 30
0.0
 11
147.766133
 21
179.646371
 31
0.0
  0
LINE
  5
17B
100
AcDbEntity
  8
1
370
     9
  6
Continuous
 62
     7
100
AcDbLine
 10
147.766133
 20
178.611095
 30
0.0
 11
147.766133
 21
179.646371
 31
0.0
  0
LINE
  5
17C
100
AcDbEntity
  8
1
370
     9
  6
Continuous
 62
     7
100
AcDbLine
 10
149.215022
 20
179.128733
 30
0.0
 11
148.249096
 21
178.869914
 31
0.0
  0
LINE
  5
17D
100
AcDbEntity
  8
1
370
     9
  6
Continuous
 62
     7
100
AcDbLine
 10
149.215022
 20
179.128733
 30
0.0
 11
148.249096
 21
179.387552
 31
0.0
  0
LINE
  5
17E
100
AcDbEntity
  8
1
370
     9
  6
Continuous
 62
     7
100
AcDbLine
 10
148.249096
 20
178.869914
 30
0.0
 11
148.249096
 21
179.387552
 31
0.0
  0
TEXT
  5
17F
100
AcDbEntity
  8
1
370
     9
  6
Continuous
 62
     7
100
AcDbText
 10
141.697985
 20
179.128733
 30
0.0
 40
5.0
  1
10ST
 41
0.3
 51
15.0
 11
141.697985
 21
179.128733
 31
0.0
100
AcDbText
 73
     1
  0
ENDBLK
  5
180
100
AcDbEntity
  8
1
370
     9
  6
Continuous
 62
     7
100
AcDbBlockEnd
  0
BLOCK
  5
183
100
AcDbEntity
  8
1
370
     9
  6
Continuous
 62
     7
100
AcDbBlockBegin
  2
*D13
 70
     0
 10
0.0
 20
0.0
 30
0.0
  3
*D13
  1

  0
LINE
  5
184
100
AcDbEntity
  8
1
370
     9
  6
Continuous
 62
     7
100
AcDbLine
 10
317.697985
 20
196.328454
 30
0.0
 11
149.697985
 21
196.328454
 31
0.0
  0
LINE
  5
185
100
AcDbEntity
  8
1
370
     9
  6
Continuous
 62
     7
100
AcDbLine
 10
317.697985
 20
198.328454
 30
0.0
 11
317.697985
 21
144.174418
 31
0.0
  0
LINE
  5
186
100
AcDbEntity
  8
1
370
     9
  6
Continuous
 62
     7
100
AcDbLine
 10
149.697985
 20
198.328454
 30
0.0
 11
149.697985
 21
170.674418
 31
0.0
  0
LINE
  5
187
100
AcDbEntity
  8
1
370
     9
  6
Continuous
 62
     7
100
AcDbLine
 10
317.697985
 20
196.328454
 30
0.0
 11
315.766133
 21
195.810816
 31
0.0
  0
LINE
  5
188
100
AcDbEntity
  8
1
370
     9
  6
Continuous
 62
     7
100
AcDbLine
 10
317.697985
 20
196.328454
 30
0.0
 11
315.766133
 21
196.846092
 31
0.0
  0
LINE
  5
189
100
AcDbEntity
  8
1
370
     9
  6
Continuous
 62
     7
100
AcDbLine
 10
315.766133
 20
195.810816
 30
0.0
 11
315.766133
 21
196.846092
 31
0.0
  0
LINE
  5
18A
100
AcDbEntity
  8
1
370
     9
  6
Continuous
 62
     7
100
AcDbLine
 10
317.215022
 20
196.328454
 30
0.0
 11
316.249096
 21
196.069635
 31
0.0
  0
LINE
  5
18B
100
AcDbEntity
  8
1
370
     9
  6
Continuous
 62
     7
100
AcDbLine
 10
317.215022
 20
196.328454
 30
0.0
 11
316.249096
 21
196.587273
 31
0.0
  0
LINE
  5
18C
100
AcDbEntity
  8
1
370
     9
  6
Continuous
 62
     7
100
AcDbLine
 10
316.249096
 20
196.069635
 30
0.0
 11
316.249096
 21
196.587273
 31
0.0
  0
LINE
  5
18D
100
AcDbEntity
  8
1
370
     9
  6
Continuous
 62
     7
100
AcDbLine
 10
149.697985
 20
196.328454
 30
0.0
 11
151.629836
 21
196.846092
 31
0.0
  0
LINE
  5
18E
100
AcDbEntity
  8
1
370
     9
  6
Continuous
 62
     7
100
AcDbLine
 10
149.697985
 20
196.328454
 30
0.0
 11
151.629836
 21
195.810816
 31
0.0
  0
LINE
  5
18F
100
AcDbEntity
  8
1
370
     9
  6
Continuous
 62
     7
100
AcDbLine
 10
151.629836
 20
196.846092
 30
0.0
 11
151.629836
 21
195.810816
 31
0.0
  0
LINE
  5
190
100
AcDbEntity
  8
1
370
     9
  6
Continuous
 62
     7
100
AcDbLine
 10
150.180948
 20
196.328454
 30
0.0
 11
151.146873
 21
196.587273
 31
0.0
  0
LINE
  5
191
100
AcDbEntity
  8
1
370
     9
  6
Continuous
 62
     7
100
AcDbLine
 10
150.180948
 20
196.328454
 30
0.0
 11
151.146873
 21
196.069635
 31
0.0
  0
LINE
  5
192
100
AcDbEntity
  8
1
370
     9
  6
Continuous
 62
     7
100
AcDbLine
 10
151.146873
 20
196.587273
 30
0.0
 11
151.146873
 21
196.069635
 31
0.0
  0
TEXT
  5
193
100
AcDbEntity
  8
1
370
     9
  6
Continuous
 62
     7
100
AcDbText
 10
231.447985
 20
196.328454
 30
0.0
 40
5.0
  1
168
 41
0.3
 51
15.0
 11
231.447985
 21
196.328454
 31
0.0
100
AcDbText
 73
     1
  0
ENDBLK
  5
194
100
AcDbEntity
  8
1
370
     9
  6
Continuous
 62
     7
100
AcDbBlockEnd
  0
BLOCK
  5
197
100
AcDbEntity
  8
1
370
     9
  6
Continuous
 62
     7
100
AcDbBlockBegin
  2
*D14
 70
     0
 10
0.0
 20
0.0
 30
0.0
  3
*D14
  1

  0
LINE
  5
198
100
AcDbEntity
  8
1
370
     9
  6
Continuous
 62
     7
100
AcDbLine
 10
261.197985
 20
188.252258
 30
0.0
 11
317.697985
 21
188.252258
 31
0.0
  0
LINE
  5
199
100
AcDbEntity
  8
1
370
     9
  6
Continuous
 62
     7
100
AcDbLine
 10
261.197985
 20
190.252258
 30
0.0
 11
261.197985
 21
165.674418
 31
0.0
  0
LINE
  5
19A
100
AcDbEntity
  8
1
370
     9
  6
Continuous
 62
     7
100
AcDbLine
 10
317.697985
 20
190.252258
 30
0.0
 11
317.697985
 21
144.174418
 31
0.0
  0
LINE
  5
19B
100
AcDbEntity
  8
1
370
     9
  6
Continuous
 62
     7
100
AcDbLine
 10
261.197985
 20
188.252258
 30
0.0
 11
263.129836
 21
188.769896
 31
0.0
  0
LINE
  5
19C
100
AcDbEntity
  8
1
370
     9
  6
Continuous
 62
     7
100
AcDbLine
 10
261.197985
 20
188.252258
 30
0.0
 11
263.129836
 21
187.73462
 31
0.0
  0
LINE
  5
19D
100
AcDbEntity
  8
1
370
     9
  6
Continuous
 62
     7
100
AcDbLine
 10
263.129836
 20
188.769896
 30
0.0
 11
263.129836
 21
187.73462
 31
0.0
  0
LINE
  5
19E
100
AcDbEntity
  8
1
370
     9
  6
Continuous
 62
     7
100
AcDbLine
 10
261.680948
 20
188.252258
 30
0.0
 11
262.646873
 21
188.511077
 31
0.0
  0
LINE
  5
19F
100
AcDbEntity
  8
1
370
     9
  6
Continuous
 62
     7
100
AcDbLine
 10
261.680948
 20
188.252258
 30
0.0
 11
262.646873
 21
187.993439
 31
0.0
  0
LINE
  5
1A0
100
AcDbEntity
  8
1
370
     9
  6
Continuous
 62
     7
100
AcDbLine
 10
262.646873
 20
188.511077
 30
0.0
 11
262.646873
 21
187.993439
 31
0.0
  0
LINE
  5
1A1
100
AcDbEntity
  8
1
370
     9
  6
Continuous
 62
     7
100
AcDbLine
 10
317.697985
 20
188.252258
 30
0.0
 11
315.766133
 21
187.73462
 31
0.0
  0
LINE
  5
1A2
100
AcDbEntity
  8
1
370
     9
  6
Continuous
 62
     7
100
AcDbLine
 10
317.697985
 20
188.252258
 30
0.0
 11
315.766133
 21
188.769896
 31
0.0
  0
LINE
  5
1A3
100
AcDbEntity
  8
1
370
     9
  6
Continuous
 62
     7
100
AcDbLine
 10
315.766133
 20
187.73462
 30
0.0
 11
315.766133
 21
188.769896
 31
0.0
  0
LINE
  5
1A4
100
AcDbEntity
  8
1
370
     9
  6
Continuous
 62
     7
100
AcDbLine
 10
317.215022
 20
188.252258
 30
0.0
 11
316.249096
 21
187.993439
 31
0.0
  0
LINE
  5
1A5
100
AcDbEntity
  8
1
370
     9
  6
Continuous
 62
     7
100
AcDbLine
 10
317.215022
 20
188.252258
 30
0.0
 11
316.249096
 21
188.511077
 31
0.0
  0
LINE
  5
1A6
100
AcDbEntity
  8
1
370
     9
  6
Continuous
 62
     7
100
AcDbLine
 10
316.249096
 20
187.993439
 30
0.0
 11
316.249096
 21
188.511077
 31
0.0
  0
TEXT
  5
1A7
100
AcDbEntity
  8
1
370
     9
  6
Continuous
 62
     7
100
AcDbText
 10
286.447985
 20
188.252258
 30
0.0
 40
5.0
  1
56.5
 41
0.3
 51
15.0
 11
286.447985
 21
188.252258
 31
0.0
100
AcDbText
 73
     1
  0
ENDBLK
  5
1A8
100
AcDbEntity
  8
1
370
     9
  6
Continuous
 62
     7
100
AcDbBlockEnd
  0
BLOCK
  5
1AB
100
AcDbEntity
  8
1
370
     9
  6
Continuous
 62
     7
100
AcDbBlockBegin
  2
*D15
 70
     0
 10
0.0
 20
0.0
 30
0.0
  3
*D15
  1

  0
LINE
  5
1AC
100
AcDbEntity
  8
1
370
     9
  6
Continuous
 62
     7
100
AcDbLine
 10
209.697985
 20
188.252258
 30
0.0
 11
261.197985
 21
188.252258
 31
0.0
  0
LINE
  5
1AD
100
AcDbEntity
  8
1
370
     9
  6
Continuous
 62
     7
100
AcDbLine
 10
209.697985
 20
190.252258
 30
0.0
 11
209.697985
 21
170.674418
 31
0.0
  0
LINE
  5
1AE
100
AcDbEntity
  8
1
370
     9
  6
Continuous
 62
     7
100
AcDbLine
 10
261.197985
 20
190.252258
 30
0.0
 11
261.197985
 21
165.674418
 31
0.0
  0
LINE
  5
1AF
100
AcDbEntity
  8
1
370
     9
  6
Continuous
 62
     7
100
AcDbLine
 10
209.697985
 20
188.252258
 30
0.0
 11
211.629836
 21
188.769896
 31
0.0
  0
LINE
  5
1B0
100
AcDbEntity
  8
1
370
     9
  6
Continuous
 62
     7
100
AcDbLine
 10
209.697985
 20
188.252258
 30
0.0
 11
211.629836
 21
187.73462
 31
0.0
  0
LINE
  5
1B1
100
AcDbEntity
  8
1
370
     9
  6
Continuous
 62
     7
100
AcDbLine
 10
211.629836
 20
188.769896
 30
0.0
 11
211.629836
 21
187.73462
 31
0.0
  0
LINE
  5
1B2
100
AcDbEntity
  8
1
370
     9
  6
Continuous
 62
     7
100
AcDbLine
 10
210.180948
 20
188.252258
 30
0.0
 11
211.146873
 21
188.511077
 31
0.0
  0
LINE
  5
1B3
100
AcDbEntity
  8
1
370
     9
  6
Continuous
 62
     7
100
AcDbLine
 10
210.180948
 20
188.252258
 30
0.0
 11
211.146873
 21
187.993439
 31
0.0
  0
LINE
  5
1B4
100
AcDbEntity
  8
1
370
     9
  6
Continuous
 62
     7
100
AcDbLine
 10
211.146873
 20
188.511077
 30
0.0
 11
211.146873
 21
187.993439
 31
0.0
  0
LINE
  5
1B5
100
AcDbEntity
  8
1
370
     9
  6
Continuous
 62
     7
100
AcDbLine
 10
261.197985
 20
188.252258
 30
0.0
 11
259.266133
 21
187.73462
 31
0.0
  0
LINE
  5
1B6
100
AcDbEntity
  8
1
370
     9
  6
Continuous
 62
     7
100
AcDbLine
 10
261.197985
 20
188.252258
 30
0.0
 11
259.266133
 21
188.769896
 31
0.0
  0
LINE
  5
1B7
100
AcDbEntity
  8
1
370
     9
  6
Continuous
 62
     7
100
AcDbLine
 10
259.266133
 20
187.73462
 30
0.0
 11
259.266133
 21
188.769896
 31
0.0
  0
LINE
  5
1B8
100
AcDbEntity
  8
1
370
     9
  6
Continuous
 62
     7
100
AcDbLine
 10
260.715022
 20
188.252258
 30
0.0
 11
259.749096
 21
187.993439
 31
0.0
  0
LINE
  5
1B9
100
AcDbEntity
  8
1
370
     9
  6
Continuous
 62
     7
100
AcDbLine
 10
260.715022
 20
188.252258
 30
0.0
 11
259.749096
 21
188.511077
 31
0.0
  0
LINE
  5
1BA
100
AcDbEntity
  8
1
370
     9
  6
Continuous
 62
     7
100
AcDbLine
 10
259.749096
 20
187.993439
 30
0.0
 11
259.749096
 21
188.511077
 31
0.0
  0
TEXT
  5
1BB
100
AcDbEntity
  8
1
370
     9
  6
Continuous
 62
     7
100
AcDbText
 10
232.447985
 20
188.252258
 30
0.0
 40
5.0
  1
51.5
 41
0.3
 51
15.0
 11
232.447985
 21
188.252258
 31
0.0
100
AcDbText
 73
     1
  0
ENDBLK
  5
1BC
100
AcDbEntity
  8
1
370
     9
  6
Continuous
 62
     7
100
AcDbBlockEnd
  0
ENDSEC
  0
SECTION
  2
ENTITIES
  0
INSERT
  5
43
100
AcDbEntity
  8
0
370
     9
  6
Continuous
 62
     7
100
AcDbBlockReference
  2
*G0
 10
0.0
 20
0.0
 30
0.0
  0
DIMENSION
  5
57
100
AcDbEntity
  8
1
370
     9
  6
Continuous
 62
     7
100
AcDbDimension
  2
*D1
 10
332.977721
 20
25.674418
 30
0.0
 11
332.977721
 21
37.674418
 31
0.0
 71
     5
 72
     1
 41
1.0
 42
0.0
  1
□24
100
AcDbAlignedDimension
 13
309.697985
 23
25.674418
 33
0.0
 14
309.697985
 24
49.674418
 34
0.0
 50
90.0
100
AcDbRotatedDimension
  0
LINE
  5
58
100
AcDbEntity
  8
1
370
    30
  6
Continuous
 62
     7
100
AcDbLine
 10
261.197985
 20
24.674418
 30
0.0
 11
255.197985
 21
24.674418
 31
0.0
  0
LINE
  5
59
100
AcDbEntity
  8
1
370
    30
  6
Continuous
 62
     7
100
AcDbLine
 10
261.197985
 20
50.674418
 30
0.0
 11
261.197985
 21
24.674418
 31
0.0
  0
DIMENSION
  5
6D
100
AcDbEntity
  8
1
370
     9
  6
Continuous
 62
     7
100
AcDbDimension
  2
*D2
 10
224.100152
 20
51.674418
 30
0.0
 11
224.100152
 21
52.174418
 31
0.0
 71
     5
 72
     1
 41
1.0
 42
0.0
  1
1
100
AcDbAlignedDimension
 13
248.197985
 23
51.674418
 33
0.0
 14
210.697985
 24
52.674418
 34
0.0
 50
90.0
100
AcDbRotatedDimension
  0
LINE
  5
6E
100
AcDbEntity
  8
1
370
    30
  6
Continuous
 62
     7
100
AcDbLine
 10
57.447985
 20
92.674418
 30
0.0
 11
57.447985
 21
89.974418
 31
0.0
  0
LINE
  5
6F
100
AcDbEntity
  8
1
370
    30
  6
Continuous
 62
     7
100
AcDbLine
 10
57.447985
 20
89.974418
 30
0.0
 11
57.147985
 21
89.674418
 31
0.0
  0
LINE
  5
70
100
AcDbEntity
  8
1
370
    30
  6
Continuous
 62
     7
100
AcDbLine
 10
57.147985
 20
89.674418
 30
0.0
 11
52.247985
 21
89.674418
 31
0.0
  0
LINE
  5
71
100
AcDbEntity
  8
1
370
    30
  6
Continuous
 62
     7
100
AcDbLine
 10
51.947985
 20
92.674418
 30
0.0
 11
51.947985
 21
89.974418
 31
0.0
  0
LINE
  5
72
100
AcDbEntity
  8
1
370
    30
  6
Continuous
 62
     7
100
AcDbLine
 10
52.247985
 20
89.674418
 30
0.0
 11
51.947985
 21
89.974418
 31
0.0
  0
LINE
  5
73
100
AcDbEntity
  8
1
370
    30
  6
Continuous
 62
     7
100
AcDbLine
 10
57.447985
 20
89.974418
 30
0.0
 11
51.947985
 21
89.974418
 31
0.0
  0
LINE
  5
74
100
AcDbEntity
  8
1
370
    30
  6
Continuous
 62
     7
100
AcDbLine
 10
162.447985
 20
92.674418
 30
0.0
 11
162.447985
 21
89.974418
 31
0.0
  0
LINE
  5
75
100
AcDbEntity
  8
1
370
    30
  6
Continuous
 62
     7
100
AcDbLine
 10
162.447985
 20
89.974418
 30
0.0
 11
162.147985
 21
89.674418
 31
0.0
  0
LINE
  5
76
100
AcDbEntity
  8
1
370
    30
  6
Continuous
 62
     7
100
AcDbLine
 10
162.147985
 20
89.674418
 30
0.0
 11
157.247985
 21
89.674418
 31
0.0
  0
LINE
  5
77
100
AcDbEntity
  8
1
370
    30
  6
Continuous
 62
     7
100
AcDbLine
 10
156.947985
 20
92.674418
 30
0.0
 11
156.947985
 21
89.974418
 31
0.0
  0
LINE
  5
78
100
AcDbEntity
  8
1
370
    30
  6
Continuous
 62
     7
100
AcDbLine
 10
157.247985
 20
89.674418
 30
0.0
 11
156.947985
 21
89.974418
 31
0.0
  0
LINE
  5
79
100
AcDbEntity
  8
1
370
    30
  6
Continuous
 62
     7
100
AcDbLine
 10
162.447985
 20
89.974418
 30
0.0
 11
156.947985
 21
89.974418
 31
0.0
  0
LINE
  5
7A
100
AcDbEntity
  8
1
370
    30
  6
Continuous
 62
     7
100
AcDbLine
 10
202.447985
 20
92.674418
 30
0.0
 11
202.447985
 21
89.974418
 31
0.0
  0
LINE
  5
7B
100
AcDbEntity
  8
1
370
    30
  6
Continuous
 62
     7
100
AcDbLine
 10
202.447985
 20
89.974418
 30
0.0
 11
202.147985
 21
89.674418
 31
0.0
  0
LINE
  5
7C
100
AcDbEntity
  8
1
370
    30
  6
Continuous
 62
     7
100
AcDbLine
 10
202.147985
 20
89.674418
 30
0.0
 11
197.247985
 21
89.674418
 31
0.0
  0
LINE
  5
7D
100
AcDbEntity
  8
1
370
    30
  6
Continuous
 62
     7
100
AcDbLine
 10
196.947985
 20
92.674418
 30
0.0
 11
196.947985
 21
89.974418
 31
0.0
  0
LINE
  5
7E
100
AcDbEntity
  8
1
370
    30
  6
Continuous
 62
     7
100
AcDbLine
 10
197.247985
 20
89.674418
 30
0.0
 11
196.947985
 21
89.974418
 31
0.0
  0
LINE
  5
7F
100
AcDbEntity
  8
1
370
    30
  6
Continuous
 62
     7
100
AcDbLine
 10
202.447985
 20
89.974418
 30
0.0
 11
196.947985
 21
89.974418
 31
0.0
  0
CIRCLE
  5
80
100
AcDbEntity
  8
1
370
     9
  6
Continuous
 62
     7
100
AcDbCircle
 10
228.397985
 20
37.667277
 30
0.0
 40
1.5
  0
CIRCLE
  5
81
100
AcDbEntity
  8
1
370
     9
  6
Continuous
 62
     7
100
AcDbCircle
 10
228.397985
 20
37.671478
 30
0.0
 40
1.0
  0
CIRCLE
  5
82
100
AcDbEntity
  8
1
370
     9
  6
Continuous
 62
     7
100
AcDbCircle
 10
228.397985
 20
139.667277
 30
0.0
 40
1.5
  0
CIRCLE
  5
83
100
AcDbEntity
  8
1
370
     9
  6
Continuous
 62
     7
100
AcDbCircle
 10
228.397985
 20
139.671478
 30
0.0
 40
1.0
  0
CIRCLE
  5
84
100
AcDbEntity
  8
1
370
     9
  6
Continuous
 62
     7
100
AcDbCircle
 10
228.397985
 20
241.68156
 30
0.0
 40
1.5
  0
CIRCLE
  5
85
100
AcDbEntity
  8
1
370
     9
  6
Continuous
 62
     7
100
AcDbCircle
 10
228.397985
 20
241.677359
 30
0.0
 40
1.0
  0
CIRCLE
  5
86
100
AcDbEntity
  8
1
370
     9
  6
Continuous
 62
     7
100
AcDbCircle
 10
154.697985
 20
230.674419
 30
0.0
 40
1.5
  0
CIRCLE
  5
87
100
AcDbEntity
  8
1
370
     9
  6
Continuous
 62
     7
100
AcDbCircle
 10
154.697985
 20
230.674419
 30
0.0
 40
1.0
  0
CIRCLE
  5
88
100
AcDbEntity
  8
1
370
     9
  6
Continuous
 62
     7
100
AcDbCircle
 10
204.697985
 20
230.674418
 30
0.0
 40
1.5
  0
CIRCLE
  5
89
100
AcDbEntity
  8
1
370
     9
  6
Continuous
 62
     7
100
AcDbCircle
 10
204.697985
 20
230.674418
 30
0.0
 40
1.0
  0
CIRCLE
  5
8A
100
AcDbEntity
  8
1
370
     9
  6
Continuous
 62
     7
100
AcDbCircle
 10
159.697985
 20
252.674418
 30
0.0
 40
1.5
  0
CIRCLE
  5
8B
100
AcDbEntity
  8
1
370
     9
  6
Continuous
 62
     7
100
AcDbCircle
 10
159.697985
 20
252.674418
 30
0.0
 40
1.0
  0
CIRCLE
  5
8C
100
AcDbEntity
  8
1
370
     9
  6
Continuous
 62
     7
100
AcDbCircle
 10
199.697985
 20
252.674418
 30
0.0
 40
1.5
  0
CIRCLE
  5
8D
100
AcDbEntity
  8
1
370
     9
  6
Continuous
 62
     7
100
AcDbCircle
 10
199.697985
 20
252.674418
 30
0.0
 40
1.0
  0
LINE
  5
8E
100
AcDbEntity
  8
1
370
     9
  6
CENTER
 62
     7
100
AcDbLine
 10
197.481938
 20
252.674418
 30
0.0
 11
201.793717
 21
252.674418
 31
0.0
  0
LINE
  5
8F
100
AcDbEntity
  8
1
370
     9
  6
CENTER
 62
     7
100
AcDbLine
 10
161.914031
 20
252.674418
 30
0.0
 11
157.602252
 21
252.674418
 31
0.0
  0
LINE
  5
90
100
AcDbEntity
  8
1
370
     9
  6
CENTER
 62
     7
100
AcDbLine
 10
199.697985
 20
250.641201
 30
0.0
 11
199.697985
 21
254.674418
 31
0.0
  0
LINE
  5
91
100
AcDbEntity
  8
1
370
     9
  6
CENTER
 62
     7
100
AcDbLine
 10
159.697985
 20
250.615093
 30
0.0
 11
159.697985
 21
254.674418
 31
0.0
  0
LINE
  5
92
100
AcDbEntity
  8
1
370
     9
  6
CENTER
 62
     7
100
AcDbLine
 10
152.628571
 20
230.674419
 30
0.0
 11
156.809987
 21
230.674419
 31
0.0
  0
LINE
  5
93
100
AcDbEntity
  8
1
370
     9
  6
CENTER
 62
     7
100
AcDbLine
 10
154.697985
 20
228.652295
 30
0.0
 11
154.697985
 21
232.878511
 31
0.0
  0
LINE
  5
94
100
AcDbEntity
  8
1
370
     9
  6
CENTER
 62
     7
100
AcDbLine
 10
206.767398
 20
230.674418
 30
0.0
 11
202.585982
 21
230.674418
 31
0.0
  0
LINE
  5
95
100
AcDbEntity
  8
1
370
     9
  6
CENTER
 62
     7
100
AcDbLine
 10
204.697985
 20
228.652294
 30
0.0
 11
204.697985
 21
232.878511
 31
0.0
  0
LINE
  5
96
100
AcDbEntity
  8
1
370
     9
  6
Continuous
 62
     7
100
AcDbLine
 10
194.73622
 20
156.825508
 30
0.0
 11
193.49935
 21
158.39718
 31
0.0
  0
LINE
  5
97
100
AcDbEntity
  8
1
370
     9
  6
Continuous
 62
     7
100
AcDbLine
 10
194.73622
 20
156.825508
 30
0.0
 11
194.450895
 21
158.805051
 31
0.0
  0
LINE
  5
98
100
AcDbEntity
  8
1
370
     9
  6
Continuous
 62
     7
100
AcDbLine
 10
193.49935
 20
158.39718
 30
0.0
 11
194.450895
 21
158.805051
 31
0.0
  0
LINE
  5
99
100
AcDbEntity
  8
1
370
     9
  6
Continuous
 62
     7
100
AcDbLine
 10
194.545945
 20
157.26941
 30
0.0
 11
193.92751
 21
158.055246
 31
0.0
  0
LINE
  5
9A
100
AcDbEntity
  8
1
370
     9
  6
Continuous
 62
     7
100
AcDbLine
 10
194.545945
 20
157.26941
 30
0.0
 11
194.403283
 21
158.259182
 31
0.0
  0
LINE
  5
9B
100
AcDbEntity
  8
1
370
     9
  6
Continuous
 62
     7
100
AcDbLine
 10
193.92751
 20
158.055246
 30
0.0
 11
194.403283
 21
158.259182
 31
0.0
  0
POLYLINE
  5
9C
100
AcDbEntity
  8
1
370
     9
  6
Continuous
 62
     7
100
AcDb2dPolyline
 66
     1
 10
0.0
 20
0.0
 30
0.0
  0
VERTEX
  5
9D
100
AcDbEntity
  8
1
370
     9
  6
Continuous
 62
     7
100
AcDbVertex
100
AcDb2dVertex
 10
194.73622
 20
156.825508
 30
0.0
  0
VERTEX
  5
9E
100
AcDbEntity
  8
1
370
     9
  6
Continuous
 62
     7
100
AcDbVertex
100
AcDb2dVertex
 10
187.54773
 20
173.59594
 30
0.0
  0
VERTEX
  5
9F
100
AcDbEntity
  8
1
370
     9
  6
Continuous
 62
     7
100
AcDbVertex
100
AcDb2dVertex
 10
181.54773
 20
173.59594
 30
0.0
  0
SEQEND
  5
A0
100
AcDbEntity
  8
1
370
     9
  6
Continuous
 62
     7
  0
TEXT
  5
A1
100
AcDbEntity
  8
1
370
     9
  6
Continuous
 62
     7
100
AcDbText
 10
181.54773
 20
173.59594
 30
0.0
 40
5.0
  1
4-M3
 41
0.3
 51
15.0
 11
181.54773
 21
173.59594
 31
0.0
100
AcDbText
 73
     1
  0
LINE
  5
A2
100
AcDbEntity
  8
1
370
     9
  6
Continuous
 62
     7
100
AcDbLine
 10
203.502977
 20
166.278151
 30
0.0
 11
202.159806
 21
167.760004
 31
0.0
  0
LINE
  5
A3
100
AcDbEntity
  8
1
370
     9
  6
Continuous
 62
     7
100
AcDbLine
 10
203.502977
 20
166.278151
 30
0.0
 11
203.080683
 21
168.233059
 31
0.0
  0
LINE
  5
A4
100
AcDbEntity
  8
1
370
     9
  6
Continuous
 62
     7
100
AcDbLine
 10
202.159806
 20
167.760004
 30
0.0
 11
203.080683
 21
168.233059
 31
0.0
  0
LINE
  5
A5
100
AcDbEntity
  8
1
370
     9
  6
Continuous
 62
     7
100
AcDbLine
 10
203.282294
 20
166.707746
 30
0.0
 11
202.610708
 21
167.448673
 31
0.0
  0
LINE
  5
A6
100
AcDbEntity
  8
1
370
     9
  6
Continuous
 62
     7
100
AcDbLine
 10
203.282294
 20
166.707746
 30
0.0
 11
203.071147
 21
167.6852
 31
0.0
  0
LINE
  5
A7
100
AcDbEntity
  8
1
370
     9
  6
Continuous
 62
     7
100
AcDbLine
 10
202.610708
 20
167.448673
 30
0.0
 11
203.071147
 21
167.6852
 31
0.0
  0
POLYLINE
  5
A8
100
AcDbEntity
  8
1
370
     9
  6
Continuous
 62
     7
100
AcDb2dPolyline
 66
     1
 10
0.0
 20
0.0
 30
0.0
  0
VERTEX
  5
A9
100
AcDbEntity
  8
1
370
     9
  6
Continuous
 62
     7
100
AcDbVertex
100
AcDb2dVertex
 10
203.502977
 20
166.278151
 30
0.0
  0
VERTEX
  5
AA
100
AcDbEntity
  8
1
370
     9
  6
Continuous
 62
     7
100
AcDbVertex
100
AcDb2dVertex
 10
197.099481
 20
178.74359
 30
0.0
  0
VERTEX
  5
AB
100
AcDbEntity
  8
1
370
     9
  6
Continuous
 62
     7
100
AcDbVertex
100
AcDb2dVertex
 10
191.099481
 20
178.74359
 30
0.0
  0
SEQEND
  5
AC
100
AcDbEntity
  8
1
370
     9
  6
Continuous
 62
     7
  0
TEXT
  5
AD
100
AcDbEntity
  8
1
370
     9
  6
Continuous
 62
     7
100
AcDbText
 10
191.099481
 20
178.74359
 30
0.0
 40
5.0
  1
4-M4
 41
0.3
 51
15.0
 11
191.099481
 21
178.74359
 31
0.0
100
AcDbText
 73
     1
  0
LINE
  5
AE
100
AcDbEntity
  8
1
370
     9
  6
Continuous
 62
     7
100
AcDbLine
 10
39.697985
 20
164.674418
 30
0.0
 11
38.280714
 21
166.085568
 31
0.0
  0
LINE
  5
AF
100
AcDbEntity
  8
1
370
     9
  6
Continuous
 62
     7
100
AcDbLine
 10
39.697985
 20
164.674418
 30
0.0
 11
39.176166
 21
166.605145
 31
0.0
  0
LINE
  5
B0
100
AcDbEntity
  8
1
370
     9
  6
Continuous
 62
     7
100
AcDbLine
 10
38.280714
 20
166.085568
 30
0.0
 11
39.176166
 21
166.605145
 31
0.0
  0
LINE
  5
B1
100
AcDbEntity
  8
1
370
     9
  6
Continuous
 62
     7
100
AcDbLine
 10
39.455599
 20
165.092153
 30
0.0
 11
38.746963
 21
165.797728
 31
0.0
  0
LINE
  5
B2
100
AcDbEntity
  8
1
370
     9
  6
Continuous
 62
     7
100
AcDbLine
 10
39.455599
 20
165.092153
 30
0.0
 11
39.194689
 21
166.057516
 31
0.0
  0
LINE
  5
B3
100
AcDbEntity
  8
1
370
     9
  6
Continuous
 62
     7
100
AcDbLine
 10
38.746963
 20
165.797728
 30
0.0
 11
39.194689
 21
166.057516
 31
0.0
  0
POLYLINE
  5
B4
100
AcDbEntity
  8
1
370
     9
  6
Continuous
 62
     7
100
AcDb2dPolyline
 66
     1
 10
0.0
 20
0.0
 30
0.0
  0
VERTEX
  5
B5
100
AcDbEntity
  8
1
370
     9
  6
Continuous
 62
     7
100
AcDbVertex
100
AcDb2dVertex
 10
39.697985
 20
164.674418
 30
0.0
  0
VERTEX
  5
B6
100
AcDbEntity
  8
1
370
     9
  6
Continuous
 62
     7
100
AcDbVertex
100
AcDb2dVertex
 10
30.461731
 20
180.59241
 30
0.0
  0
VERTEX
  5
B7
100
AcDbEntity
  8
1
370
     9
  6
Continuous
 62
     7
100
AcDbVertex
100
AcDb2dVertex
 10
12.461731
 20
180.59241
 30
0.0
  0
SEQEND
  5
B8
100
AcDbEntity
  8
1
370
     9
  6
Continuous
 62
     7
  0
TEXT
  5
B9
100
AcDbEntity
  8
1
370
     9
  6
Continuous
 62
     7
100
AcDbText
 10
12.461731
 20
180.59241
 30
0.0
 40
5.0
  1
4-M4用ザグリ
 41
0.6
 51
15.0
 11
12.461731
 21
180.59241
 31
0.0
100
AcDbText
 73
     1
  0
DIMENSION
  5
CD
100
AcDbEntity
  8
1
370
     9
  6
Continuous
 62
     7
100
AcDbDimension
  2
*D3
 10
24.035882
 20
114.674418
 30
0.0
 11
24.035882
 21
139.674418
 31
0.0
 71
     5
 72
     1
 41
1.0
 42
0.0
  1
□50
100
AcDbAlignedDimension
 13
35.946161
 23
114.674418
 33
0.0
 14
35.884199
 24
164.674418
 34
0.0
 50
90.0
100
AcDbRotatedDimension
  0
DIMENSION
  5
E1
100
AcDbEntity
  8
1
370
     9
  6
Continuous
 62
     7
100
AcDbDimension
  2
*D4
 10
83.15879
 20
109.674418
 30
0.0
 11
83.15879
 21
139.674418
 31
0.0
 71
     5
 72
     1
 41
1.0
 42
0.0
  1
60
100
AcDbAlignedDimension
 13
70.697985
 23
109.674418
 33
0.0
 14
70.697985
 24
169.674418
 34
0.0
 50
90.0
100
AcDbRotatedDimension
  0
DIMENSION
  5
F5
100
AcDbEntity
  8
1
370
     9
  6
Continuous
 62
     7
100
AcDbDimension
  2
*D5
 10
83.15879
 20
92.674418
 30
0.0
 11
83.15879
 21
101.174418
 31
0.0
 71
     5
 72
     1
 41
1.0
 42
0.0
  1
17
100
AcDbAlignedDimension
 13
69.697985
 23
92.674418
 33
0.0
 14
70.697985
 24
109.674418
 34
0.0
 50
90.0
100
AcDbRotatedDimension
  0
DIMENSION
  5
109
100
AcDbEntity
  8
1
370
     9
  6
Continuous
 62
     7
100
AcDbDimension
  2
*D6
 10
131.505592
 20
22.674418
 30
0.0
 11
131.505592
 21
37.674418
 31
0.0
 71
     5
 72
     1
 41
1.0
 42
0.0
  1
30
100
AcDbAlignedDimension
 13
147.697985
 23
22.674418
 33
0.0
 14
148.697985
 24
52.674418
 34
0.0
 50
90.0
100
AcDbRotatedDimension
  0
DIMENSION
  5
11D
100
AcDbEntity
  8
1
370
     9
  6
Continuous
 62
     7
100
AcDbDimension
  2
*D7
 10
140.170804
 20
22.674418
 30
0.0
 11
140.170804
 21
30.174418
 31
0.0
 71
     5
 72
     1
 41
1.0
 42
0.0
  1
15
100
AcDbAlignedDimension
 13
147.697985
 23
22.674418
 33
0.0
 14
146.824173
 24
37.674418
 34
0.0
 50
90.0
100
AcDbRotatedDimension
  0
DIMENSION
  5
131
100
AcDbEntity
  8
1
370
     9
  6
Continuous
 62
     7
100
AcDbDimension
  2
*D8
 10
121.570002
 20
114.674418
 30
0.0
 11
121.570002
 21
139.674418
 31
0.0
 71
     5
 72
     1
 41
1.0
 42
0.0
  1
□50
100
AcDbAlignedDimension
 13
149.697985
 23
114.674418
 33
0.0
 14
149.697985
 24
164.674418
 34
0.0
 50
90.0
100
AcDbRotatedDimension
  0
DIMENSION
  5
145
100
AcDbEntity
  8
1
370
     9
  6
Continuous
 62
     7
100
AcDbDimension
  2
*D9
 10
128.95545
 20
123.674418
 30
0.0
 11
128.95545
 21
139.674418
 31
0.0
 71
     5
 72
     1
 41
1.0
 42
0.0
  1
□32
100
AcDbAlignedDimension
 13
159.697985
 23
123.674418
 33
0.0
 14
159.697985
 24
155.674418
 34
0.0
 50
90.0
100
AcDbRotatedDimension
  0
DIMENSION
  5
159
100
AcDbEntity
  8
1
370
     9
  6
Continuous
 62
     7
100
AcDbDimension
  2
*D10
 10
149.697985
 20
188.252258
 30
0.0
 11
179.697985
 21
188.252258
 31
0.0
 71
     5
 72
     1
 41
1.0
 42
0.0
  1
□60
100
AcDbAlignedDimension
 13
149.697985
 23
170.674418
 33
0.0
 14
209.697985
 24
170.674418
 34
0.0
100
AcDbRotatedDimension
  0
DIMENSION
  5
16D
100
AcDbEntity
  8
1
370
     9
  6
Continuous
 62
     7
100
AcDbDimension
  2
*D11
 10
219.697985
 20
179.128733
 30
0.0
 11
214.697985
 21
179.128733
 31
0.0
 71
     5
 72
     1
 41
1.0
 42
0.0
  1
10ST
100
AcDbAlignedDimension
 13
219.697985
 23
170.674418
 33
0.0
 14
209.697985
 24
170.674418
 34
0.0
100
AcDbRotatedDimension
  0
DIMENSION
  5
181
100
AcDbEntity
  8
1
370
     9
  6
Continuous
 62
     7
100
AcDbDimension
  2
*D12
 10
139.697985
 20
179.128733
 30
0.0
 11
144.697985
 21
179.128733
 31
0.0
 71
     5
 72
     1
 41
1.0
 42
0.0
  1
10ST
100
AcDbAlignedDimension
 13
139.697985
 23
170.674418
 33
0.0
 14
149.697985
 24
170.674418
 34
0.0
100
AcDbRotatedDimension
  0
DIMENSION
  5
195
100
AcDbEntity
  8
1
370
     9
  6
Continuous
 62
     7
100
AcDbDimension
  2
*D13
 10
317.697985
 20
196.328454
 30
0.0
 11
233.697985
 21
196.328454
 31
0.0
 71
     5
 72
     1
 41
1.0
 42
0.0
  1
168
100
AcDbAlignedDimension
 13
317.697985
 23
144.174418
 33
0.0
 14
149.697985
 24
170.674418
 34
0.0
100
AcDbRotatedDimension
  0
DIMENSION
  5
1A9
100
AcDbEntity
  8
1
370
     9
  6
Continuous
 62
     7
100
AcDbDimension
  2
*D14
 10
261.197985
 20
188.252258
 30
0.0
 11
289.447985
 21
188.252258
 31
0.0
 71
     5
 72
     1
 41
1.0
 42
0.0
  1
56.5
100
AcDbAlignedDimension
 13
261.197985
 23
165.674418
 33
0.0
 14
317.697985
 24
144.174418
 34
0.0
100
AcDbRotatedDimension
  0
DIMENSION
  5
1BD
100
AcDbEntity
  8
1
370
     9
  6
Continuous
 62
     7
100
AcDbDimension
  2
*D15
 10
209.697985
 20
188.252258
 30
0.0
 11
235.447985
 21
188.252258
 31
0.0
 71
     5
 72
     1
 41
1.0
 42
0.0
  1
51.5
100
AcDbAlignedDimension
 13
209.697985
 23
170.674418
 33
0.0
 14
261.197985
 24
165.674418
 34
0.0
100
AcDbRotatedDimension
  0
LINE
  5
1BE
100
AcDbEntity
  8
1
370
     9
  6
DOT
 62
     7
100
AcDbLine
 10
202.447985
 20
247.174418
 30
0.0
 11
202.447985
 21
256.674418
 31
0.0
  0
LINE
  5
1BF
100
AcDbEntity
  8
1
370
     9
  6
DOT
 62
     7
100
AcDbLine
 10
206.947985
 20
256.674418
 30
0.0
 11
206.947985
 21
247.174418
 31
0.0
  0
LINE
  5
1C0
100
AcDbEntity
  8
1
370
     9
  6
CENTER
 62
     7
100
AcDbLine
 10
204.697985
 20
241.674418
 30
0.0
 11
204.697985
 21
258.488205
 31
0.0
  0
LINE
  5
1C1
100
AcDbEntity
  8
1
370
     9
  6
DOT
 62
     7
100
AcDbLine
 10
200.697985
 20
247.174418
 30
0.0
 11
208.697985
 21
247.174418
 31
0.0
  0
LINE
  5
1C2
100
AcDbEntity
  8
1
370
     9
  6
DOT
 62
     7
100
AcDbLine
 10
200.697985
 20
242.174418
 30
0.0
 11
200.697985
 21
247.174418
 31
0.0
  0
LINE
  5
1C3
100
AcDbEntity
  8
1
370
     9
  6
CENTER
 62
     7
100
AcDbLine
 10
154.697985
 20
241.674418
 30
0.0
 11
154.697985
 21
258.426242
 31
0.0
  0
LINE
  5
1C4
100
AcDbEntity
  8
1
370
     9
  6
DOT
 62
     7
100
AcDbLine
 10
156.947985
 20
256.674418
 30
0.0
 11
156.947985
 21
247.174418
 31
0.0
  0
LINE
  5
1C5
100
AcDbEntity
  8
1
370
     9
  6
DOT
 62
     7
100
AcDbLine
 10
152.447985
 20
247.174418
 30
0.0
 11
152.447985
 21
256.674418
 31
0.0
  0
LINE
  5
1C6
100
AcDbEntity
  8
1
370
     9
  6
DOT
 62
     7
100
AcDbLine
 10
158.697985
 20
242.174418
 30
0.0
 11
158.697985
 21
247.174418
 31
0.0
  0
LINE
  5
1C7
100
AcDbEntity
  8
1
370
     9
  6
DOT
 62
     7
100
AcDbLine
 10
150.697985
 20
247.174418
 30
0.0
 11
158.697985
 21
247.174418
 31
0.0
  0
LINE
  5
1C8
100
AcDbEntity
  8
1
370
    30
  6
Continuous
 62
     7
100
AcDbLine
 10
150.697985
 20
256.674418
 30
0.0
 11
150.697985
 21
242.174418
 31
0.0
  0
LINE
  5
1C9
100
AcDbEntity
  8
1
370
    30
  6
Continuous
 62
     7
100
AcDbLine
 10
208.697985
 20
256.674418
 30
0.0
 11
208.697985
 21
242.174418
 31
0.0
  0
LINE
  5
1CA
100
AcDbEntity
  8
1
370
    30
  6
Continuous
 62
     7
100
AcDbLine
 10
208.697985
 20
226.674418
 30
0.0
 11
208.697985
 21
241.674418
 31
0.0
  0
LINE
  5
1CB
100
AcDbEntity
  8
1
370
    30
  6
Continuous
 62
     7
100
AcDbLine
 10
150.697985
 20
226.674418
 30
0.0
 11
150.697985
 21
241.674418
 31
0.0
  0
LINE
  5
1CC
100
AcDbEntity
  8
1
370
    30
  6
Continuous
 62
     7
100
AcDbLine
 10
209.697985
 20
241.674418
 30
0.0
 11
209.697985
 21
227.674418
 31
0.0
  0
LINE
  5
1CD
100
AcDbEntity
  8
1
370
    30
  6
Continuous
 62
     7
100
AcDbLine
 10
209.697985
 20
241.674418
 30
0.0
 11
149.697985
 21
241.674418
 31
0.0
  0
LINE
  5
1CE
100
AcDbEntity
  8
1
370
    30
  6
Continuous
 62
     7
100
AcDbLine
 10
209.697985
 20
242.174418
 30
0.0
 11
209.697985
 21
256.674418
 31
0.0
  0
LINE
  5
1CF
100
AcDbEntity
  8
1
370
    30
  6
Continuous
 62
     7
100
AcDbLine
 10
209.697985
 20
242.174418
 30
0.0
 11
149.697985
 21
242.174418
 31
0.0
  0
LINE
  5
1D0
100
AcDbEntity
  8
1
370
    30
  6
Continuous
 62
     7
100
AcDbLine
 10
149.697985
 20
241.674418
 30
0.0
 11
149.697985
 21
227.674418
 31
0.0
  0
LINE
  5
1D1
100
AcDbEntity
  8
1
370
    30
  6
Continuous
 62
     7
100
AcDbLine
 10
149.697985
 20
242.174418
 30
0.0
 11
149.697985
 21
256.674418
 31
0.0
  0
LINE
  5
1D2
100
AcDbEntity
  8
1
370
    30
  6
Continuous
 62
     7
100
AcDbLine
 10
261.197985
 20
228.674418
 30
0.0
 11
261.197985
 21
255.674418
 31
0.0
  0
LINE
  5
1D3
100
AcDbEntity
  8
1
370
    30
  6
Continuous
 62
     7
100
AcDbLine
 10
261.197985
 20
228.674418
 30
0.0
 11
255.197985
 21
228.674418
 31
0.0
  0
LINE
  5
1D4
100
AcDbEntity
  8
1
370
    30
  6
Continuous
 62
     7
100
AcDbLine
 10
261.197985
 20
254.674418
 30
0.0
 11
255.197985
 21
254.674418
 31
0.0
  0
LINE
  5
1D5
100
AcDbEntity
  8
1
370
    30
  6
Continuous
 62
     7
100
AcDbLine
 10
261.197985
 20
254.674418
 30
0.0
 11
260.197985
 21
255.674418
 31
0.0
  0
LINE
  5
1D6
100
AcDbEntity
  8
1
370
    30
  6
Continuous
 62
     7
100
AcDbLine
 10
255.197985
 20
255.674418
 30
0.0
 11
260.197985
 21
255.674418
 31
0.0
  0
LINE
  5
1D7
100
AcDbEntity
  8
1
370
    30
  6
Continuous
 62
     7
100
AcDbLine
 10
261.197985
 20
228.674418
 30
0.0
 11
261.197985
 21
254.674418
 31
0.0
  0
LINE
  5
1D8
100
AcDbEntity
  8
1
370
    30
  6
Continuous
 62
     7
100
AcDbLine
 10
260.197985
 20
227.674418
 30
0.0
 11
261.197985
 21
228.674418
 31
0.0
  0
LINE
  5
1D9
100
AcDbEntity
  8
1
370
    30
  6
Continuous
 62
     7
100
AcDbLine
 10
255.197985
 20
227.674418
 30
0.0
 11
260.197985
 21
227.674418
 31
0.0
  0
LINE
  5
1DA
100
AcDbEntity
  8
1
370
    30
  6
Continuous
 62
     7
100
AcDbLine
 10
250.197985
 20
228.674418
 30
0.0
 11
255.197985
 21
228.674418
 31
0.0
  0
LINE
  5
1DB
100
AcDbEntity
  8
1
370
    30
  6
Continuous
 62
     7
100
AcDbLine
 10
241.197985
 20
246.674418
 30
0.0
 11
241.197985
 21
251.674418
 31
0.0
  0
LINE
  5
1DC
100
AcDbEntity
  8
1
370
    30
  6
Continuous
 62
     7
100
AcDbLine
 10
214.697985
 20
244.474418
 30
0.0
 11
209.697985
 21
244.474418
 31
0.0
  0
LINE
  5
1DD
100
AcDbEntity
  8
1
370
    30
  6
Continuous
 62
     7
100
AcDbLine
 10
254.197985
 20
251.674418
 30
0.0
 11
254.197985
 21
256.474418
 31
0.0
  0
LINE
  5
1DE
100
AcDbEntity
  8
1
370
    30
  6
Continuous
 62
     7
100
AcDbLine
 10
232.197985
 20
238.974421
 30
0.0
 11
232.197985
 21
244.374415
 31
0.0
  0
LINE
  5
1DF
100
AcDbEntity
  8
1
370
    30
  6
Continuous
 62
     7
100
AcDbLine
 10
231.897982
 20
238.674418
 30
0.0
 11
231.897982
 21
244.674418
 31
0.0
  0
LINE
  5
1E0
100
AcDbEntity
  8
1
370
    30
  6
Continuous
 62
     7
100
AcDbLine
 10
232.19797
 20
238.97436
 30
0.0
 11
231.897967
 21
238.674357
 31
0.0
  0
LINE
  5
1E1
100
AcDbEntity
  8
1
370
    30
  6
Continuous
 62
     7
100
AcDbLine
 10
232.197978
 20
244.374445
 30
0.0
 11
231.897975
 21
244.674448
 31
0.0
  0
LINE
  5
1E2
100
AcDbEntity
  8
1
370
    30
  6
Continuous
 62
     7
100
AcDbLine
 10
231.897982
 20
238.674418
 30
0.0
 11
230.697985
 21
238.674418
 31
0.0
  0
LINE
  5
1E3
100
AcDbEntity
  8
1
370
    30
  6
Continuous
 62
     7
100
AcDbLine
 10
232.197985
 20
239.142771
 30
0.0
 11
230.697985
 21
239.142771
 31
0.0
  0
LINE
  5
1E4
100
AcDbEntity
  8
1
370
    30
  6
Continuous
 62
     7
100
AcDbLine
 10
232.197985
 20
244.206064
 30
0.0
 11
230.697985
 21
244.206064
 31
0.0
  0
LINE
  5
1E5
100
AcDbEntity
  8
1
370
    30
  6
Continuous
 62
     7
100
AcDbLine
 10
231.897982
 20
244.674418
 30
0.0
 11
230.697985
 21
244.674418
 31
0.0
  0
LINE
  5
1E6
100
AcDbEntity
  8
1
370
    30
  6
Continuous
 62
     7
100
AcDbLine
 10
233.197985
 20
243.924418
 30
0.0
 11
232.197985
 21
243.924418
 31
0.0
  0
LINE
  5
1E7
100
AcDbEntity
  8
1
370
    30
  6
Continuous
 62
     7
100
AcDbLine
 10
233.197985
 20
239.424418
 30
0.0
 11
232.197985
 21
239.424418
 31
0.0
  0
LINE
  5
1E8
100
AcDbEntity
  8
1
370
    30
  6
Continuous
 62
     7
100
AcDbLine
 10
224.697985
 20
232.674418
 30
0.0
 11
224.697985
 21
251.674418
 31
0.0
  0
LINE
  5
1E9
100
AcDbEntity
  8
1
370
    30
  6
Continuous
 62
     7
100
AcDbLine
 10
210.697985
 20
232.674418
 30
0.0
 11
210.697985
 21
243.474418
 31
0.0
  0
LINE
  5
1EA
100
AcDbEntity
  8
1
370
    30
  6
Continuous
 62
     7
100
AcDbLine
 10
209.697985
 20
233.674418
 30
0.0
 11
225.697985
 21
233.674418
 31
0.0
  0
LINE
  5
1EB
100
AcDbEntity
  8
1
370
    30
  6
Continuous
 62
     7
100
AcDbLine
 10
149.697985
 20
227.674418
 30
0.0
 11
209.697985
 21
227.674418
 31
0.0
  0
LINE
  5
1EC
100
AcDbEntity
  8
1
370
    30
  6
Continuous
 62
     7
100
AcDbLine
 10
249.19797
 20
244.174418
 30
0.0
 11
250.199938
 21
244.174418
 31
0.0
  0
LINE
  5
1ED
100
AcDbEntity
  8
1
370
    30
  6
Continuous
 62
     7
100
AcDbLine
 10
249.19797
 20
239.174418
 30
0.0
 11
250.199938
 21
239.174418
 31
0.0
  0
LINE
  5
1EE
100
AcDbEntity
  8
1
370
    30
  6
Continuous
 62
     7
100
AcDbLine
 10
214.697985
 20
251.674418
 30
0.0
 11
255.197985
 21
251.674418
 31
0.0
  0
LINE
  5
1EF
100
AcDbEntity
  8
1
370
    30
  6
Continuous
 62
     7
100
AcDbLine
 10
255.197985
 20
251.674418
 30
0.0
 11
255.197985
 21
256.474418
 31
0.0
  0
LINE
  5
1F0
100
AcDbEntity
  8
1
370
    30
  6
Continuous
 62
     7
100
AcDbLine
 10
209.697985
 20
256.474418
 30
0.0
 11
255.197985
 21
256.474418
 31
0.0
  0
LINE
  5
1F1
100
AcDbEntity
  8
1
370
    30
  6
Continuous
 62
     7
100
AcDbLine
 10
261.197985
 20
253.674418
 30
0.0
 11
307.697985
 21
253.674418
 31
0.0
  0
LINE
  5
1F2
100
AcDbEntity
  8
1
370
    30
  6
Continuous
 62
     7
100
AcDbLine
 10
307.697985
 20
253.674418
 30
0.0
 11
307.697985
 21
229.674418
 31
0.0
  0
LINE
  5
1F3
100
AcDbEntity
  8
1
370
    30
  6
Continuous
 62
     7
100
AcDbLine
 10
261.197985
 20
229.674418
 30
0.0
 11
307.697985
 21
229.674418
 31
0.0
  0
LINE
  5
1F4
100
AcDbEntity
  8
1
370
    30
  6
Continuous
 62
     7
100
AcDbLine
 10
299.697985
 20
229.674418
 30
0.0
 11
299.697985
 21
253.674418
 31
0.0
  0
LINE
  5
1F5
100
AcDbEntity
  8
1
370
    30
  6
Continuous
 62
     7
100
AcDbLine
 10
305.197985
 20
229.674418
 30
0.0
 11
305.197985
 21
236.074412
 31
0.0
  0
LINE
  5
1F6
100
AcDbEntity
  8
1
370
    30
  6
Continuous
 62
     7
100
AcDbLine
 10
305.197985
 20
230.424418
 30
0.0
 11
306.045245
 21
230.498545
 31
0.0
  0
LINE
  5
1F7
100
AcDbEntity
  8
1
370
    30
  6
Continuous
 62
     7
100
AcDbLine
 10
305.197985
 20
235.924418
 30
0.0
 11
306.045245
 21
235.850291
 31
0.0
  0
ARC
  5
1F8
100
AcDbEntity
  8
1
370
    30
  6
Continuous
 62
     7
100
AcDbCircle
 10
300.197985
 20
233.174418
 30
0.0
 40
6.999984
100
AcDbArc
 50
-16.25705
 51
16.25705
  0
ARC
  5
1F9
100
AcDbEntity
  8
1
370
    30
  6
Continuous
 62
     7
100
AcDbCircle
 10
305.958086
 20
234.854106
 30
0.0
 40
1.000004
100
AcDbArc
 50
16.256424
 51
84.999817
  0
ARC
  5
1FA
100
AcDbEntity
  8
1
370
    30
  6
Continuous
 62
     7
100
AcDbCircle
 10
305.958086
 20
231.494731
 30
0.0
 40
0.999991
100
AcDbArc
 50
-84.999809
 51
-16.256424
  0
ARC
  5
1FB
100
AcDbEntity
  8
1
370
    30
  6
Continuous
 62
     7
100
AcDbCircle
 10
305.297991
 20
236.074412
 30
0.0
 40
0.100006
100
AcDbArc
 50
90.0
 51
180.0
  0
LINE
  5
1FC
100
AcDbEntity
  8
1
370
    30
  6
Continuous
 62
     7
100
AcDbLine
 10
305.197985
 20
253.674418
 30
0.0
 11
305.197985
 21
247.274424
 31
0.0
  0
LINE
  5
1FD
100
AcDbEntity
  8
1
370
    30
  6
Continuous
 62
     7
100
AcDbLine
 10
305.197985
 20
252.924418
 30
0.0
 11
306.045245
 21
252.850291
 31
0.0
  0
LINE
  5
1FE
100
AcDbEntity
  8
1
370
    30
  6
Continuous
 62
     7
100
AcDbLine
 10
305.197985
 20
247.424418
 30
0.0
 11
306.045245
 21
247.498545
 31
0.0
  0
ARC
  5
1FF
100
AcDbEntity
  8
1
370
    30
  6
Continuous
 62
     7
100
AcDbCircle
 10
300.197985
 20
250.174418
 30
0.0
 40
6.999984
100
AcDbArc
 50
-16.25705
 51
16.25705
  0
ARC
  5
200
100
AcDbEntity
  8
1
370
    30
  6
Continuous
 62
     7
100
AcDbCircle
 10
305.958086
 20
248.49473
 30
0.0
 40
1.000004
100
AcDbArc
 50
-84.999817
 51
-16.256424
  0
ARC
  5
201
100
AcDbEntity
  8
1
370
    30
  6
Continuous
 62
     7
100
AcDbCircle
 10
305.958086
 20
251.854105
 30
0.0
 40
0.999991
100
AcDbArc
 50
16.256424
 51
84.999809
  0
ARC
  5
202
100
AcDbEntity
  8
1
370
    30
  6
Continuous
 62
     7
100
AcDbCircle
 10
305.297991
 20
247.274424
 30
0.0
 40
0.100006
100
AcDbArc
 50
180.0
 51
-90.0
  0
LINE
  5
203
100
AcDbEntity
  8
1
370
    30
  6
Continuous
 62
     7
100
AcDbLine
 10
307.697985
 20
236.174418
 30
0.0
 11
305.297991
 21
236.174418
 31
0.0
  0
LINE
  5
204
100
AcDbEntity
  8
1
370
    30
  6
Continuous
 62
     7
100
AcDbLine
 10
307.697985
 20
247.174418
 30
0.0
 11
305.297991
 21
247.174418
 31
0.0
  0
LINE
  5
205
100
AcDbEntity
  8
1
370
    30
  6
Continuous
 62
     7
100
AcDbLine
 10
305.197985
 20
230.674418
 30
0.0
 11
299.697985
 21
230.674418
 31
0.0
  0
LINE
  5
206
100
AcDbEntity
  8
1
370
    30
  6
Continuous
 62
     7
100
AcDbLine
 10
299.697985
 20
252.674418
 30
0.0
 11
305.197985
 21
252.674418
 31
0.0
  0
LINE
  5
207
100
AcDbEntity
  8
1
370
    30
  6
Continuous
 62
     7
100
AcDbLine
 10
268.197985
 20
248.674418
 30
0.0
 11
299.697985
 21
248.674418
 31
0.0
  0
LINE
  5
208
100
AcDbEntity
  8
1
370
    30
  6
Continuous
 62
     7
100
AcDbLine
 10
299.697985
 20
234.674418
 30
0.0
 11
268.197985
 21
234.674418
 31
0.0
  0
LINE
  5
209
100
AcDbEntity
  8
1
370
     9
  6
CENTER
 62
     7
100
AcDbLine
 10
309.086295
 20
233.174418
 30
0.0
 11
301.80986
 21
233.174418
 31
0.0
  0
LINE
  5
20A
100
AcDbEntity
  8
1
370
     9
  6
CENTER
 62
     7
100
AcDbLine
 10
309.086295
 20
250.174418
 30
0.0
 11
301.80986
 21
250.174418
 31
0.0
  0
LINE
  5
20B
100
AcDbEntity
  8
1
370
    30
  6
Continuous
 62
     7
100
AcDbLine
 10
307.697985
 20
239.174418
 30
0.0
 11
317.697985
 21
239.174418
 31
0.0
  0
LINE
  5
20C
100
AcDbEntity
  8
1
370
    30
  6
Continuous
 62
     7
100
AcDbLine
 10
317.697985
 20
239.174418
 30
0.0
 11
317.697985
 21
244.174418
 31
0.0
  0
LINE
  5
20D
100
AcDbEntity
  8
1
370
    30
  6
Continuous
 62
     7
100
AcDbLine
 10
307.697985
 20
244.174418
 30
0.0
 11
317.697985
 21
244.174418
 31
0.0
  0
LINE
  5
20E
100
AcDbEntity
  8
1
370
    30
  6
Continuous
 62
     7
100
AcDbLine
 10
261.197985
 20
229.674418
 30
0.0
 11
261.197985
 21
253.674418
 31
0.0
  0
LINE
  5
20F
100
AcDbEntity
  8
1
370
    30
  6
Continuous
 62
     7
100
AcDbLine
 10
268.197985
 20
229.674418
 30
0.0
 11
268.197985
 21
253.674418
 31
0.0
  0
LINE
  5
210
100
AcDbEntity
  8
1
370
    30
  6
Continuous
 62
     7
100
AcDbLine
 10
268.197985
 20
230.674418
 30
0.0
 11
261.197985
 21
230.674418
 31
0.0
  0
LINE
  5
211
100
AcDbEntity
  8
1
370
    30
  6
Continuous
 62
     7
100
AcDbLine
 10
268.197985
 20
252.674418
 30
0.0
 11
261.197985
 21
252.674418
 31
0.0
  0
LINE
  5
212
100
AcDbEntity
  8
1
370
    30
  6
Continuous
 62
     7
100
AcDbLine
 10
249.19797
 20
246.674418
 30
0.0
 11
249.19797
 21
233.674418
 31
0.0
  0
LINE
  5
213
100
AcDbEntity
  8
1
370
    30
  6
Continuous
 62
     7
100
AcDbLine
 10
240.197985
 20
249.674418
 30
0.0
 11
233.197985
 21
249.674418
 31
0.0
  0
LINE
  5
214
100
AcDbEntity
  8
1
370
    30
  6
Continuous
 62
     7
100
AcDbLine
 10
240.697982
 20
233.674422
 30
0.0
 11
240.697982
 21
246.674418
 31
0.0
  0
LINE
  5
215
100
AcDbEntity
  8
1
370
    30
  6
Continuous
 62
     7
100
AcDbLine
 10
241.097981
 20
234.024419
 30
0.0
 11
241.097981
 21
246.674418
 31
0.0
  0
LINE
  5
216
100
AcDbEntity
  8
1
370
     9
  6
CENTER
 62
     7
100
AcDbLine
 10
245.197985
 20
253.005744
 30
0.0
 11
245.197985
 21
242.139773
 31
0.0
  0
LINE
  5
217
100
AcDbEntity
  8
1
370
    30
  6
Continuous
 62
     7
100
AcDbLine
 10
255.197985
 20
251.674418
 30
0.0
 11
255.197985
 21
227.674418
 31
0.0
  0
LINE
  5
218
100
AcDbEntity
  8
1
370
    30
  6
Continuous
 62
     7
100
AcDbLine
 10
255.197985
 20
227.674418
 30
0.0
 11
255.197985
 21
255.674418
 31
0.0
  0
LINE
  5
219
100
AcDbEntity
  8
1
370
    30
  6
Continuous
 62
     7
100
AcDbLine
 10
250.197985
 20
227.674418
 30
0.0
 11
255.197985
 21
227.674418
 31
0.0
  0
LINE
  5
21A
100
AcDbEntity
  8
1
370
    30
  6
Continuous
 62
     7
100
AcDbLine
 10
250.197985
 20
227.674418
 30
0.0
 11
250.197985
 21
246.674418
 31
0.0
  0
LINE
  5
21B
100
AcDbEntity
  8
1
370
    30
  6
Continuous
 62
     7
100
AcDbLine
 10
240.197985
 20
246.674418
 30
0.0
 11
250.197985
 21
246.674418
 31
0.0
  0
LINE
  5
21C
100
AcDbEntity
  8
1
370
    30
  6
Continuous
 62
     7
100
AcDbLine
 10
240.197985
 20
246.674418
 30
0.0
 11
240.197985
 21
251.674418
 31
0.0
  0
LINE
  5
21D
100
AcDbEntity
  8
1
370
    30
  6
Continuous
 62
     7
100
AcDbLine
 10
240.197985
 20
251.674418
 30
0.0
 11
255.197985
 21
251.674418
 31
0.0
  0
LINE
  5
21E
100
AcDbEntity
  8
1
370
    30
  6
Continuous
 62
     7
100
AcDbLine
 10
242.097985
 20
242.674418
 30
0.0
 11
241.697985
 21
243.074418
 31
0.0
  0
LINE
  5
21F
100
AcDbEntity
  8
1
370
    30
  6
Continuous
 62
     7
100
AcDbLine
 10
242.097985
 20
242.674418
 30
0.0
 11
248.297985
 21
242.674418
 31
0.0
  0
LINE
  5
220
100
AcDbEntity
  8
1
370
    30
  6
Continuous
 62
     7
100
AcDbLine
 10
248.297985
 20
242.674418
 30
0.0
 11
248.697985
 21
243.074418
 31
0.0
  0
LINE
  5
221
100
AcDbEntity
  8
1
370
    30
  6
Continuous
 62
     7
100
AcDbLine
 10
241.697985
 20
243.074418
 30
0.0
 11
248.697985
 21
243.074418
 31
0.0
  0
LINE
  5
222
100
AcDbEntity
  8
1
370
    30
  6
Continuous
 62
     7
100
AcDbLine
 10
241.697985
 20
246.674418
 30
0.0
 11
241.697985
 21
243.074418
 31
0.0
  0
LINE
  5
223
100
AcDbEntity
  8
1
370
    30
  6
Continuous
 62
     7
100
AcDbLine
 10
248.697985
 20
246.674418
 30
0.0
 11
248.697985
 21
243.074418
 31
0.0
  0
LINE
  5
224
100
AcDbEntity
  8
1
370
    30
  6
Continuous
 62
     7
100
AcDbLine
 10
243.69797
 20
242.674418
 30
0.0
 11
243.69797
 21
233.674418
 31
0.0
  0
LINE
  5
225
100
AcDbEntity
  8
1
370
    30
  6
Continuous
 62
     7
100
AcDbLine
 10
244.19797
 20
242.674418
 30
0.0
 11
244.19797
 21
233.674418
 31
0.0
  0
LINE
  5
226
100
AcDbEntity
  8
1
370
    30
  6
Continuous
 62
     7
100
AcDbLine
 10
241.297974
 20
234.024419
 30
0.0
 11
241.297974
 21
246.674418
 31
0.0
  0
LINE
  5
227
100
AcDbEntity
  8
1
370
    30
  6
Continuous
 62
     7
100
AcDbLine
 10
241.69797
 20
246.674418
 30
0.0
 11
241.69797
 21
233.674418
 31
0.0
  0
LINE
  5
228
100
AcDbEntity
  8
1
370
     9
  6
CENTER
 62
     7
100
AcDbLine
 10
246.69797
 20
242.739178
 30
0.0
 11
246.69797
 21
233.643817
 31
0.0
  0
ARC
  5
229
100
AcDbEntity
  8
1
370
    30
  6
Continuous
 62
     7
100
AcDbCircle
 10
246.172863
 20
235.274714
 30
0.0
 40
2.625106
100
AcDbArc
 50
-0.00631
 51
9.573412
  0
ARC
  5
22A
100
AcDbEntity
  8
1
370
    30
  6
Continuous
 62
     7
100
AcDbCircle
 10
246.22601
 20
235.284245
 30
0.0
 40
2.571114
100
AcDbArc
 50
9.560934
 51
19.310709
  0
ARC
  5
22B
100
AcDbEntity
  8
1
370
    30
  6
Continuous
 62
     7
100
AcDbCircle
 10
246.320761
 20
235.317997
 30
0.0
 40
2.470532
100
AcDbArc
 50
19.298668
 51
29.44382
  0
ARC
  5
22C
100
AcDbEntity
  8
1
370
    30
  6
Continuous
 62
     7
100
AcDbCircle
 10
246.436727
 20
235.38395
 30
0.0
 40
2.337124
100
AcDbArc
 50
29.433286
 51
40.15536
  0
ARC
  5
22D
100
AcDbEntity
  8
1
370
    30
  6
Continuous
 62
     7
100
AcDbCircle
 10
246.549041
 20
235.47905
 30
0.0
 40
2.189956
100
AcDbArc
 50
40.148624
 51
51.592348
  0
ARC
  5
22E
100
AcDbEntity
  8
1
370
    30
  6
Continuous
 62
     7
100
AcDbCircle
 10
246.635216
 20
235.587712
 30
0.0
 40
2.051271
100
AcDbArc
 50
51.59293
 51
63.802067
  0
ARC
  5
22F
100
AcDbEntity
  8
1
370
    30
  6
Continuous
 62
     7
100
AcDbCircle
 10
246.683199
 20
235.684336
 30
0.0
 40
1.94339
100
AcDbArc
 50
63.813772
 51
76.686016
  0
ARC
  5
230
100
AcDbEntity
  8
1
370
    30
  6
Continuous
 62
     7
100
AcDbCircle
 10
246.697525
 20
235.741679
 30
0.0
 40
1.884289
100
AcDbArc
 50
76.708396
 51
89.986485
  0
ARC
  5
231
100
AcDbEntity
  8
1
370
    30
  6
Continuous
 62
     7
100
AcDbCircle
 10
246.698417
 20
235.741655
 30
0.0
 40
1.884313
100
AcDbArc
 50
90.013587
 51
103.310906
  0
ARC
  5
232
100
AcDbEntity
  8
1
370
    30
  6
Continuous
 62
     7
100
AcDbCircle
 10
246.712812
 20
235.68412
 30
0.0
 40
1.943616
100
AcDbArc
 50
103.333377
 51
116.236349
  0
ARC
  5
233
100
AcDbEntity
  8
1
370
    30
  6
Continuous
 62
     7
100
AcDbCircle
 10
246.761047
 20
235.587186
 30
0.0
 40
2.051888
100
AcDbArc
 50
116.247911
 51
128.471798
  0
ARC
  5
234
100
AcDbEntity
  8
1
370
    30
  6
Continuous
 62
     7
100
AcDbCircle
 10
246.847488
 20
235.478441
 30
0.0
 40
2.190803
100
AcDbArc
 50
128.472373
 51
139.918676
  0
ARC
  5
235
100
AcDbEntity
  8
1
370
    30
  6
Continuous
 62
     7
100
AcDbCircle
 10
246.959948
 20
235.383432
 30
0.0
 40
2.338024
100
AcDbArc
 50
139.911717
 51
150.632553
  0
ARC
  5
236
100
AcDbEntity
  8
1
370
    30
  6
Continuous
 62
     7
100
AcDbCircle
 10
247.07585
 20
235.31769
 30
0.0
 40
2.471272
100
AcDbArc
 50
150.622013
 51
160.760513
  0
ARC
  5
237
100
AcDbEntity
  8
1
370
    30
  6
Continuous
 62
     7
100
AcDbCircle
 10
247.170355
 20
235.284133
 30
0.0
 40
2.571557
100
AcDbArc
 50
160.748447
 51
170.490706
  0
ARC
  5
238
100
AcDbEntity
  8
1
370
    30
  6
Continuous
 62
     7
100
AcDbCircle
 10
247.223159
 20
235.274713
 30
0.0
 40
2.625192
100
AcDbArc
 50
170.478326
 51
-179.993706
  0
ARC
  5
239
100
AcDbEntity
  8
1
370
    30
  6
Continuous
 62
     7
100
AcDbCircle
 10
245.258507
 20
235.280417
 30
0.0
 40
0.660586
100
AcDbArc
 50
-179.297145
 51
-151.127059
  0
ARC
  5
23A
100
AcDbEntity
  8
1
370
    30
  6
Continuous
 62
     7
100
AcDbCircle
 10
245.54454
 20
235.439254
 30
0.0
 40
0.987761
100
AcDbArc
 50
-151.070453
 51
-132.203608
  0
ARC
  5
23B
100
AcDbEntity
  8
1
370
    30
  6
Continuous
 62
     7
100
AcDbCircle
 10
245.917649
 20
235.840511
 30
0.0
 40
1.535655
100
AcDbArc
 50
-132.458557
 51
-120.353247
  0
ARC
  5
23C
100
AcDbEntity
  8
1
370
    30
  6
Continuous
 62
     7
100
AcDbCircle
 10
246.242993
 20
236.385411
 30
0.0
 40
2.170277
100
AcDbArc
 50
-120.495645
 51
-111.931383
  0
ARC
  5
23D
100
AcDbEntity
  8
1
370
    30
  6
Continuous
 62
     7
100
AcDbCircle
 10
246.476477
 20
236.956248
 30
0.0
 40
2.78701
100
AcDbArc
 50
-112.000905
 51
-105.304526
  0
ARC
  5
23E
100
AcDbEntity
  8
1
370
    30
  6
Continuous
 62
     7
100
AcDbCircle
 10
246.616255
 20
237.458589
 30
0.0
 40
3.308432
100
AcDbArc
 50
-105.34312
 51
-99.718707
  0
ARC
  5
23F
100
AcDbEntity
  8
1
370
    30
  6
Continuous
 62
     7
100
AcDbCircle
 10
246.680618
 20
237.825417
 30
0.0
 40
3.68086
100
AcDbArc
 50
-99.742287
 51
-94.69824
  0
ARC
  5
240
100
AcDbEntity
  8
1
370
    30
  6
Continuous
 62
     7
100
AcDbCircle
 10
246.697507
 20
238.016899
 30
0.0
 40
3.873083
100
AcDbArc
 50
-94.715229
 51
-89.926723
  0
ARC
  5
241
100
AcDbEntity
  8
1
370
    30
  6
Continuous
 62
     7
100
AcDbCircle
 10
246.69854
 20
238.014028
 30
0.0
 40
3.870211
100
AcDbArc
 50
-89.94196
 51
-85.138958
  0
ARC
  5
242
100
AcDbEntity
  8
1
370
    30
  6
Continuous
 62
     7
100
AcDbCircle
 10
246.716432
 20
237.816627
 30
0.0
 40
3.672004
100
AcDbArc
 50
-85.156115
 51
-80.094716
  0
ARC
  5
243
100
AcDbEntity
  8
1
370
    30
  6
Continuous
 62
     7
100
AcDbCircle
 10
246.782698
 20
237.445054
 30
0.0
 40
3.294571
100
AcDbArc
 50
-80.118375
 51
-74.477874
  0
ARC
  5
244
100
AcDbEntity
  8
1
370
    30
  6
Continuous
 62
     7
100
AcDbCircle
 10
246.924257
 20
236.942163
 30
0.0
 40
2.77214
100
AcDbArc
 50
-74.515439
 51
-67.830962
  0
ARC
  5
245
100
AcDbEntity
  8
1
370
    30
  6
Continuous
 62
     7
100
AcDbCircle
 10
247.159053
 20
236.373019
 30
0.0
 40
2.156473
100
AcDbArc
 50
-67.902094
 51
-59.296617
  0
ARC
  5
246
100
AcDbEntity
  8
1
370
    30
  6
Continuous
 62
     7
100
AcDbCircle
 10
247.485337
 20
235.830998
 30
0.0
 40
1.523838
100
AcDbArc
 50
-59.439245
 51
-47.282828
  0
ARC
  5
247
100
AcDbEntity
  8
1
370
    30
  6
Continuous
 62
     7
100
AcDbCircle
 10
247.856734
 20
235.435126
 30
0.0
 40
0.981047
100
AcDbArc
 50
-47.535039
 51
-28.665966
  0
ARC
  5
248
100
AcDbEntity
  8
1
370
    30
  6
Continuous
 62
     7
100
AcDbCircle
 10
248.138892
 20
235.280087
 30
0.0
 40
0.659101
100
AcDbArc
 50
-28.6065
 51
-0.492263
  0
ARC
  5
249
100
AcDbEntity
  8
1
370
    30
  6
Continuous
 62
     7
100
AcDbCircle
 10
243.94797
 20
235.767564
 30
0.0
 40
0.25
100
AcDbArc
 50
-0.00001
 51
-179.99999
  0
ARC
  5
24A
100
AcDbEntity
  8
1
370
    30
  6
Continuous
 62
     7
100
AcDbCircle
 10
238.447985
 20
247.081272
 30
0.0
 40
0.25
100
AcDbArc
 50
-0.00001
 51
-179.99999
  0
CIRCLE
  5
24B
100
AcDbEntity
  8
1
370
    30
  6
Continuous
 62
     7
100
AcDbCircle
 10
235.697985
 20
236.874419
 30
0.0
 40
1.99
  0
LINE
  5
24C
100
AcDbEntity
  8
1
370
    30
  6
Continuous
 62
     7
100
AcDbLine
 10
244.19797
 20
241.924418
 30
0.0
 11
249.19797
 21
241.924418
 31
0.0
  0
LINE
  5
24D
100
AcDbEntity
  8
1
370
    30
  6
Continuous
 62
     7
100
AcDbLine
 10
244.19797
 20
241.424418
 30
0.0
 11
249.19797
 21
241.424418
 31
0.0
  0
LINE
  5
24E
100
AcDbEntity
  8
1
370
    30
  6
Continuous
 62
     7
100
AcDbLine
 10
245.752959
 20
237.374414
 30
0.0
 11
247.642977
 21
237.374414
 31
0.0
  0
LINE
  5
24F
100
AcDbEntity
  8
1
370
    30
  6
Continuous
 62
     7
100
AcDbLine
 10
244.19797
 20
233.674418
 30
0.0
 11
249.19797
 21
233.674418
 31
0.0
  0
LINE
  5
250
100
AcDbEntity
  8
1
370
    30
  6
Continuous
 62
     7
100
AcDbLine
 10
241.69797
 20
233.674418
 30
0.0
 11
243.69797
 21
233.674418
 31
0.0
  0
LINE
  5
251
100
AcDbEntity
  8
1
370
    30
  6
Continuous
 62
     7
100
AcDbLine
 10
241.297974
 20
234.024419
 30
0.0
 11
241.097981
 21
234.024419
 31
0.0
  0
LINE
  5
252
100
AcDbEntity
  8
1
370
    30
  6
Continuous
 62
     7
100
AcDbLine
 10
234.947986
 20
236.441406
 30
0.0
 11
235.697987
 21
236.008393
 31
0.0
  0
LINE
  5
253
100
AcDbEntity
  8
1
370
    30
  6
Continuous
 62
     7
100
AcDbLine
 10
235.697987
 20
237.740446
 30
0.0
 11
236.447987
 21
237.307433
 31
0.0
  0
LINE
  5
254
100
AcDbEntity
  8
1
370
    30
  6
Continuous
 62
     7
100
AcDbLine
 10
235.697987
 20
236.008395
 30
0.0
 11
236.447987
 21
236.441407
 31
0.0
  0
LINE
  5
255
100
AcDbEntity
  8
1
370
    30
  6
Continuous
 62
     7
100
AcDbLine
 10
234.947988
 20
237.307434
 30
0.0
 11
235.697987
 21
237.740445
 31
0.0
  0
LINE
  5
256
100
AcDbEntity
  8
1
370
    30
  6
Continuous
 62
     7
100
AcDbLine
 10
236.447985
 20
236.441407
 30
0.0
 11
236.447985
 21
237.307431
 31
0.0
  0
LINE
  5
257
100
AcDbEntity
  8
1
370
    30
  6
Continuous
 62
     7
100
AcDbLine
 10
234.947985
 20
236.441407
 30
0.0
 11
234.947985
 21
237.307431
 31
0.0
  0
LINE
  5
258
100
AcDbEntity
  8
1
370
    30
  6
Continuous
 62
     7
100
AcDbLine
 10
241.297974
 20
234.674417
 30
0.0
 11
241.69797
 21
234.674417
 31
0.0
  0
LINE
  5
259
100
AcDbEntity
  8
1
370
    30
  6
Continuous
 62
     7
100
AcDbLine
 10
241.297974
 20
237.674418
 30
0.0
 11
241.69797
 21
237.674418
 31
0.0
  0
LINE
  5
25A
100
AcDbEntity
  8
1
370
    30
  6
Continuous
 62
     7
100
AcDbLine
 10
241.297974
 20
240.174417
 30
0.0
 11
241.69797
 21
240.174417
 31
0.0
  0
LINE
  5
25B
100
AcDbEntity
  8
1
370
    30
  6
Continuous
 62
     7
100
AcDbLine
 10
241.297974
 20
243.17442
 30
0.0
 11
241.69797
 21
243.17442
 31
0.0
  0
LINE
  5
25C
100
AcDbEntity
  8
1
370
    30
  6
Continuous
 62
     7
100
AcDbLine
 10
241.297974
 20
245.674421
 30
0.0
 11
241.69797
 21
245.674421
 31
0.0
  0
LINE
  5
25D
100
AcDbEntity
  8
1
370
    30
  6
Continuous
 62
     7
100
AcDbLine
 10
240.697982
 20
234.674417
 30
0.0
 11
241.097981
 21
234.674417
 31
0.0
  0
LINE
  5
25E
100
AcDbEntity
  8
1
370
    30
  6
Continuous
 62
     7
100
AcDbLine
 10
240.697982
 20
237.674418
 30
0.0
 11
241.097981
 21
237.674418
 31
0.0
  0
LINE
  5
25F
100
AcDbEntity
  8
1
370
    30
  6
Continuous
 62
     7
100
AcDbLine
 10
240.697982
 20
240.174417
 30
0.0
 11
241.097981
 21
240.174417
 31
0.0
  0
LINE
  5
260
100
AcDbEntity
  8
1
370
    30
  6
Continuous
 62
     7
100
AcDbLine
 10
240.697982
 20
243.17442
 30
0.0
 11
241.097981
 21
243.17442
 31
0.0
  0
LINE
  5
261
100
AcDbEntity
  8
1
370
    30
  6
Continuous
 62
     7
100
AcDbLine
 10
240.697982
 20
245.674421
 30
0.0
 11
241.097981
 21
245.674421
 31
0.0
  0
LINE
  5
262
100
AcDbEntity
  8
1
370
    30
  6
Continuous
 62
     7
100
AcDbLine
 10
238.197985
 20
233.674422
 30
0.0
 11
233.197985
 21
233.674422
 31
0.0
  0
LINE
  5
263
100
AcDbEntity
  8
1
370
    30
  6
Continuous
 62
     7
100
AcDbLine
 10
240.697982
 20
233.674422
 30
0.0
 11
238.697985
 21
233.674422
 31
0.0
  0
LINE
  5
264
100
AcDbEntity
  8
1
370
    30
  6
Continuous
 62
     7
100
AcDbLine
 10
233.197985
 20
233.674422
 30
0.0
 11
233.197985
 21
249.674418
 31
0.0
  0
LINE
  5
265
100
AcDbEntity
  8
1
370
    30
  6
Continuous
 62
     7
100
AcDbLine
 10
238.197985
 20
233.674422
 30
0.0
 11
238.197985
 21
247.081272
 31
0.0
  0
LINE
  5
266
100
AcDbEntity
  8
1
370
    30
  6
Continuous
 62
     7
100
AcDbLine
 10
238.697985
 20
233.674422
 30
0.0
 11
238.697985
 21
247.081272
 31
0.0
  0
LINE
  5
267
100
AcDbEntity
  8
1
370
     9
  6
CENTER
 62
     7
100
AcDbLine
 10
148.824173
 20
241.674418
 30
0.0
 11
322.824173
 21
241.674418
 31
0.0
  0
LINE
  5
268
100
AcDbEntity
  8
1
370
    30
  6
Continuous
 62
     7
100
AcDbLine
 10
217.397985
 20
244.924418
 30
0.0
 11
217.397985
 21
250.424418
 31
0.0
  0
LINE
  5
269
100
AcDbEntity
  8
1
370
    30
  6
Continuous
 62
     7
100
AcDbLine
 10
217.697985
 20
245.224418
 30
0.0
 11
217.697985
 21
250.124418
 31
0.0
  0
LINE
  5
26A
100
AcDbEntity
  8
1
370
    30
  6
Continuous
 62
     7
100
AcDbLine
 10
214.697985
 20
243.474418
 30
0.0
 11
214.697985
 21
251.674418
 31
0.0
  0
LINE
  5
26B
100
AcDbEntity
  8
1
370
     9
  6
CENTER
 62
     7
100
AcDbLine
 10
207.739686
 20
247.674418
 30
0.0
 11
218.793761
 21
247.674418
 31
0.0
  0
LINE
  5
26C
100
AcDbEntity
  8
1
370
     9
  6
CENTER
 62
     7
100
AcDbLine
 10
148.870134
 20
241.674418
 30
0.0
 11
154.693116
 21
241.674418
 31
0.0
  0
LINE
  5
26D
100
AcDbEntity
  8
1
370
     9
  6
CENTER
 62
     7
100
AcDbLine
 10
228.397985
 20
243.68156
 30
0.0
 11
228.397985
 21
239.68156
 31
0.0
  0
LINE
  5
26E
100
AcDbEntity
  8
1
370
    30
  6
Continuous
 62
     7
100
AcDbLine
 10
230.697985
 20
248.924418
 30
0.0
 11
230.697985
 21
234.424418
 31
0.0
  0
LINE
  5
26F
100
AcDbEntity
  8
1
370
    30
  6
Continuous
 62
     7
100
AcDbLine
 10
230.697985
 20
234.424418
 30
0.0
 11
226.697985
 21
234.424418
 31
0.0
  0
LINE
  5
270
100
AcDbEntity
  8
1
370
    30
  6
Continuous
 62
     7
100
AcDbLine
 10
226.697985
 20
248.924418
 30
0.0
 11
226.697985
 21
234.424418
 31
0.0
  0
LINE
  5
271
100
AcDbEntity
  8
1
370
    30
  6
Continuous
 62
     7
100
AcDbLine
 10
226.697985
 20
236.674418
 30
0.0
 11
225.697985
 21
236.674418
 31
0.0
  0
LINE
  5
272
100
AcDbEntity
  8
1
370
    30
  6
Continuous
 62
     7
100
AcDbLine
 10
225.697985
 20
246.674418
 30
0.0
 11
225.697985
 21
236.674418
 31
0.0
  0
LINE
  5
273
100
AcDbEntity
  8
1
370
    30
  6
Continuous
 62
     7
100
AcDbLine
 10
226.697985
 20
246.674418
 30
0.0
 11
225.697985
 21
246.674418
 31
0.0
  0
LINE
  5
274
100
AcDbEntity
  8
1
370
    30
  6
Continuous
 62
     7
100
AcDbLine
 10
230.697985
 20
248.924418
 30
0.0
 11
226.697985
 21
248.924418
 31
0.0
  0
LINE
  5
275
100
AcDbEntity
  8
1
370
    30
  6
Continuous
 62
     7
100
AcDbLine
 10
214.697985
 20
243.474418
 30
0.0
 11
209.697985
 21
243.474418
 31
0.0
  0
LINE
  5
276
100
AcDbEntity
  8
1
370
    30
  6
Continuous
 62
     7
100
AcDbLine
 10
214.697985
 20
244.924418
 30
0.0
 11
217.397985
 21
244.924418
 31
0.0
  0
LINE
  5
277
100
AcDbEntity
  8
1
370
    30
  6
Continuous
 62
     7
100
AcDbLine
 10
217.397985
 20
244.924418
 30
0.0
 11
217.697985
 21
245.224418
 31
0.0
  0
LINE
  5
278
100
AcDbEntity
  8
1
370
    30
  6
Continuous
 62
     7
100
AcDbLine
 10
214.697985
 20
250.424418
 30
0.0
 11
217.397985
 21
250.424418
 31
0.0
  0
LINE
  5
279
100
AcDbEntity
  8
1
370
    30
  6
Continuous
 62
     7
100
AcDbLine
 10
217.697985
 20
250.124418
 30
0.0
 11
217.397985
 21
250.424418
 31
0.0
  0
LINE
  5
27A
100
AcDbEntity
  8
1
370
    30
  6
Continuous
 62
     7
100
AcDbLine
 10
210.697985
 20
232.674418
 30
0.0
 11
209.697985
 21
233.674418
 31
0.0
  0
LINE
  5
27B
100
AcDbEntity
  8
1
370
    30
  6
Continuous
 62
     7
100
AcDbLine
 10
210.697985
 20
232.674418
 30
0.0
 11
224.697985
 21
232.674418
 31
0.0
  0
LINE
  5
27C
100
AcDbEntity
  8
1
370
    30
  6
Continuous
 62
     7
100
AcDbLine
 10
225.697985
 20
251.674418
 30
0.0
 11
225.697985
 21
233.674418
 31
0.0
  0
LINE
  5
27D
100
AcDbEntity
  8
1
370
    30
  6
Continuous
 62
     7
100
AcDbLine
 10
224.697985
 20
232.674418
 30
0.0
 11
225.697985
 21
233.674418
 31
0.0
  0
LINE
  5
27E
100
AcDbEntity
  8
1
370
    30
  6
Continuous
 62
     7
100
AcDbLine
 10
159.697985
 20
256.674418
 30
0.0
 11
149.697985
 21
256.674418
 31
0.0
  0
LINE
  5
27F
100
AcDbEntity
  8
1
370
    30
  6
Continuous
 62
     7
100
AcDbLine
 10
209.697985
 20
256.674418
 30
0.0
 11
199.697985
 21
256.674418
 31
0.0
  0
LINE
  5
280
100
AcDbEntity
  8
1
370
    30
  6
Continuous
 62
     7
100
AcDbLine
 10
199.697985
 20
256.174418
 30
0.0
 11
199.697985
 21
256.674418
 31
0.0
  0
LINE
  5
281
100
AcDbEntity
  8
1
370
    30
  6
Continuous
 62
     7
100
AcDbLine
 10
159.697985
 20
256.174418
 30
0.0
 11
199.697985
 21
256.174418
 31
0.0
  0
LINE
  5
282
100
AcDbEntity
  8
1
370
    30
  6
Continuous
 62
     7
100
AcDbLine
 10
159.697985
 20
256.174418
 30
0.0
 11
159.697985
 21
256.674418
 31
0.0
  0
LINE
  5
283
100
AcDbEntity
  8
1
370
    30
  6
Continuous
 62
     7
100
AcDbLine
 10
150.697985
 20
226.674418
 30
0.0
 11
208.697985
 21
226.674418
 31
0.0
  0
LINE
  5
284
100
AcDbEntity
  8
1
370
    30
  6
Continuous
 62
     7
100
AcDbLine
 10
208.697985
 20
226.674418
 30
0.0
 11
209.697985
 21
227.674418
 31
0.0
  0
LINE
  5
285
100
AcDbEntity
  8
1
370
    30
  6
Continuous
 62
     7
100
AcDbLine
 10
150.697985
 20
226.674418
 30
0.0
 11
149.697985
 21
227.674418
 31
0.0
  0
LINE
  5
286
100
AcDbEntity
  8
1
370
    30
  6
Continuous
 62
     7
100
AcDbLine
 10
372.200168
 20
115.674418
 30
0.0
 11
400.200168
 21
115.674418
 31
0.0
  0
LINE
  5
287
100
AcDbEntity
  8
1
370
    30
  6
Continuous
 62
     7
100
AcDbLine
 10
372.200168
 20
163.674418
 30
0.0
 11
400.200168
 21
163.674418
 31
0.0
  0
LINE
  5
288
100
AcDbEntity
  8
1
370
    30
  6
Continuous
 62
     7
100
AcDbLine
 10
399.200168
 20
114.674418
 30
0.0
 11
373.200168
 21
114.674418
 31
0.0
  0
LINE
  5
289
100
AcDbEntity
  8
1
370
    30
  6
Continuous
 62
     7
100
AcDbLine
 10
399.200168
 20
164.674418
 30
0.0
 11
399.200168
 21
114.674418
 31
0.0
  0
LINE
  5
28A
100
AcDbEntity
  8
1
370
    30
  6
Continuous
 62
     7
100
AcDbLine
 10
373.200168
 20
164.674418
 30
0.0
 11
373.200168
 21
114.674418
 31
0.0
  0
LINE
  5
28B
100
AcDbEntity
  8
1
370
    30
  6
Continuous
 62
     7
100
AcDbLine
 10
373.200168
 20
164.674418
 30
0.0
 11
399.200168
 21
164.674418
 31
0.0
  0
LINE
  5
28C
100
AcDbEntity
  8
1
370
    30
  6
Continuous
 62
     7
100
AcDbLine
 10
373.200168
 20
114.674418
 30
0.0
 11
372.200168
 21
115.674418
 31
0.0
  0
LINE
  5
28D
100
AcDbEntity
  8
1
370
    30
  6
Continuous
 62
     7
100
AcDbLine
 10
372.200168
 20
163.674418
 30
0.0
 11
372.200168
 21
115.674418
 31
0.0
  0
LINE
  5
28E
100
AcDbEntity
  8
1
370
    30
  6
Continuous
 62
     7
100
AcDbLine
 10
400.200168
 20
115.674418
 30
0.0
 11
399.200168
 21
114.674418
 31
0.0
  0
LINE
  5
28F
100
AcDbEntity
  8
1
370
    30
  6
Continuous
 62
     7
100
AcDbLine
 10
400.200168
 20
163.674418
 30
0.0
 11
400.200168
 21
115.674418
 31
0.0
  0
LINE
  5
290
100
AcDbEntity
  8
1
370
    30
  6
Continuous
 62
     7
100
AcDbLine
 10
399.200168
 20
164.674418
 30
0.0
 11
400.200168
 21
163.674418
 31
0.0
  0
LINE
  5
291
100
AcDbEntity
  8
1
370
    30
  6
Continuous
 62
     7
100
AcDbLine
 10
372.200168
 20
163.674418
 30
0.0
 11
373.200168
 21
164.674418
 31
0.0
  0
LINE
  5
292
100
AcDbEntity
  8
1
370
    30
  6
Continuous
 62
     7
100
AcDbLine
 10
371.200168
 20
110.674418
 30
0.0
 11
371.200168
 21
168.674418
 31
0.0
  0
LINE
  5
293
100
AcDbEntity
  8
1
370
    30
  6
Continuous
 62
     7
100
AcDbLine
 10
386.200168
 20
110.674418
 30
0.0
 11
371.200168
 21
110.674418
 31
0.0
  0
LINE
  5
294
100
AcDbEntity
  8
1
370
    30
  6
Continuous
 62
     7
100
AcDbLine
 10
386.200168
 20
109.674418
 30
0.0
 11
372.200168
 21
109.674418
 31
0.0
  0
LINE
  5
295
100
AcDbEntity
  8
1
370
    30
  6
Continuous
 62
     7
100
AcDbLine
 10
372.200168
 20
109.674418
 30
0.0
 11
372.200168
 21
169.674418
 31
0.0
  0
LINE
  5
296
100
AcDbEntity
  8
1
370
    30
  6
Continuous
 62
     7
100
AcDbLine
 10
386.200168
 20
169.674418
 30
0.0
 11
372.200168
 21
169.674418
 31
0.0
  0
LINE
  5
297
100
AcDbEntity
  8
1
370
    30
  6
Continuous
 62
     7
100
AcDbLine
 10
386.200168
 20
168.674418
 30
0.0
 11
371.200168
 21
168.674418
 31
0.0
  0
LINE
  5
298
100
AcDbEntity
  8
1
370
    30
  6
Continuous
 62
     7
100
AcDbLine
 10
386.700167
 20
110.674418
 30
0.0
 11
401.200168
 21
110.674418
 31
0.0
  0
LINE
  5
299
100
AcDbEntity
  8
1
370
    30
  6
Continuous
 62
     7
100
AcDbLine
 10
386.700167
 20
168.674418
 30
0.0
 11
401.200168
 21
168.674418
 31
0.0
  0
LINE
  5
29A
100
AcDbEntity
  8
1
370
    30
  6
Continuous
 62
     7
100
AcDbLine
 10
386.700167
 20
164.674418
 30
0.0
 11
386.700167
 21
169.674418
 31
0.0
  0
LINE
  5
29B
100
AcDbEntity
  8
1
370
    30
  6
Continuous
 62
     7
100
AcDbLine
 10
386.700167
 20
169.674418
 30
0.0
 11
401.200168
 21
169.674418
 31
0.0
  0
LINE
  5
29C
100
AcDbEntity
  8
1
370
    30
  6
Continuous
 62
     7
100
AcDbLine
 10
386.700167
 20
109.674418
 30
0.0
 11
386.700167
 21
114.674418
 31
0.0
  0
LINE
  5
29D
100
AcDbEntity
  8
1
370
    30
  6
Continuous
 62
     7
100
AcDbLine
 10
386.700167
 20
109.674418
 30
0.0
 11
401.200168
 21
109.674418
 31
0.0
  0
LINE
  5
29E
100
AcDbEntity
  8
1
370
    30
  6
Continuous
 62
     7
100
AcDbLine
 10
388.950168
 20
89.974418
 30
0.0
 11
388.950168
 21
92.674418
 31
0.0
  0
LINE
  5
29F
100
AcDbEntity
  8
1
370
    30
  6
Continuous
 62
     7
100
AcDbLine
 10
383.450168
 20
89.974418
 30
0.0
 11
383.450168
 21
92.674418
 31
0.0
  0
LINE
  5
2A0
100
AcDbEntity
  8
1
370
    30
  6
Continuous
 62
     7
100
AcDbLine
 10
388.650168
 20
89.674418
 30
0.0
 11
383.750168
 21
89.674418
 31
0.0
  0
LINE
  5
2A1
100
AcDbEntity
  8
1
370
    30
  6
Continuous
 62
     7
100
AcDbLine
 10
388.950168
 20
89.974418
 30
0.0
 11
383.450168
 21
89.974418
 31
0.0
  0
LINE
  5
2A2
100
AcDbEntity
  8
1
370
    30
  6
Continuous
 62
     7
100
AcDbLine
 10
388.650168
 20
89.674418
 30
0.0
 11
388.950168
 21
89.974418
 31
0.0
  0
LINE
  5
2A3
100
AcDbEntity
  8
1
370
    30
  6
Continuous
 62
     7
100
AcDbLine
 10
383.750168
 20
89.674418
 30
0.0
 11
383.450168
 21
89.974418
 31
0.0
  0
LINE
  5
2A4
100
AcDbEntity
  8
1
370
    30
  6
Continuous
 62
     7
100
AcDbLine
 10
377.650168
 20
102.674418
 30
0.0
 11
377.950168
 21
102.974418
 31
0.0
  0
LINE
  5
2A5
100
AcDbEntity
  8
1
370
    30
  6
Continuous
 62
     7
100
AcDbLine
 10
372.750168
 20
102.674418
 30
0.0
 11
372.450168
 21
102.974418
 31
0.0
  0
LINE
  5
2A6
100
AcDbEntity
  8
1
370
    30
  6
Continuous
 62
     7
100
AcDbLine
 10
372.450168
 20
102.974418
 30
0.0
 11
377.950168
 21
102.974418
 31
0.0
  0
LINE
  5
2A7
100
AcDbEntity
  8
1
370
    30
  6
Continuous
 62
     7
100
AcDbLine
 10
372.750168
 20
102.674418
 30
0.0
 11
377.650168
 21
102.674418
 31
0.0
  0
LINE
  5
2A8
100
AcDbEntity
  8
1
370
    30
  6
Continuous
 62
     7
100
AcDbLine
 10
377.950168
 20
102.974418
 30
0.0
 11
377.950168
 21
105.674418
 31
0.0
  0
LINE
  5
2A9
100
AcDbEntity
  8
1
370
    30
  6
Continuous
 62
     7
100
AcDbLine
 10
372.450168
 20
102.974418
 30
0.0
 11
372.450168
 21
105.674418
 31
0.0
  0
LINE
  5
2AA
100
AcDbEntity
  8
1
370
    30
  6
Continuous
 62
     7
100
AcDbLine
 10
378.200168
 20
105.674418
 30
0.0
 11
372.200168
 21
105.674418
 31
0.0
  0
LINE
  5
2AB
100
AcDbEntity
  8
1
370
    30
  6
Continuous
 62
     7
100
AcDbLine
 10
378.200168
 20
102.174418
 30
0.0
 11
378.200168
 21
109.674418
 31
0.0
  0
LINE
  5
2AC
100
AcDbEntity
  8
1
370
    30
  6
Continuous
 62
     7
100
AcDbLine
 10
372.200168
 20
109.674418
 30
0.0
 11
372.200168
 21
102.174418
 31
0.0
  0
LINE
  5
2AD
100
AcDbEntity
  8
1
370
    30
  6
Continuous
 62
     7
100
AcDbLine
 10
399.200168
 20
92.674418
 30
0.0
 11
373.200168
 21
92.674418
 31
0.0
  0
LINE
  5
2AE
100
AcDbEntity
  8
1
370
    30
  6
Continuous
 62
     7
100
AcDbLine
 10
373.200168
 20
97.174418
 30
0.0
 11
373.200168
 21
92.674418
 31
0.0
  0
LINE
  5
2AF
100
AcDbEntity
  8
1
370
    30
  6
Continuous
 62
     7
100
AcDbLine
 10
374.200168
 20
97.174418
 30
0.0
 11
374.200168
 21
93.674418
 31
0.0
  0
LINE
  5
2B0
100
AcDbEntity
  8
1
370
    30
  6
Continuous
 62
     7
100
AcDbLine
 10
398.200168
 20
93.674418
 30
0.0
 11
374.200168
 21
93.674418
 31
0.0
  0
LINE
  5
2B1
100
AcDbEntity
  8
1
370
    30
  6
Continuous
 62
     7
100
AcDbLine
 10
372.200168
 20
102.174418
 30
0.0
 11
372.200168
 21
101.174418
 31
0.0
  0
LINE
  5
2B2
100
AcDbEntity
  8
1
370
    30
  6
Continuous
 62
     7
100
AcDbLine
 10
372.200168
 20
102.174418
 30
0.0
 11
382.700168
 21
102.174418
 31
0.0
  0
LINE
  5
2B3
100
AcDbEntity
  8
1
370
    30
  6
Continuous
 62
     7
100
AcDbLine
 10
372.450168
 20
98.474418
 30
0.0
 11
372.450168
 21
101.174418
 31
0.0
  0
LINE
  5
2B4
100
AcDbEntity
  8
1
370
    30
  6
Continuous
 62
     7
100
AcDbLine
 10
377.950168
 20
98.474418
 30
0.0
 11
377.950168
 21
101.174418
 31
0.0
  0
LINE
  5
2B5
100
AcDbEntity
  8
1
370
    30
  6
Continuous
 62
     7
100
AcDbLine
 10
372.750168
 20
98.174418
 30
0.0
 11
377.650168
 21
98.174418
 31
0.0
  0
LINE
  5
2B6
100
AcDbEntity
  8
1
370
    30
  6
Continuous
 62
     7
100
AcDbLine
 10
372.450168
 20
98.474418
 30
0.0
 11
377.950168
 21
98.474418
 31
0.0
  0
LINE
  5
2B7
100
AcDbEntity
  8
1
370
    30
  6
Continuous
 62
     7
100
AcDbLine
 10
372.750168
 20
98.174418
 30
0.0
 11
372.450168
 21
98.474418
 31
0.0
  0
LINE
  5
2B8
100
AcDbEntity
  8
1
370
    30
  6
Continuous
 62
     7
100
AcDbLine
 10
377.650168
 20
98.174418
 30
0.0
 11
377.950168
 21
98.474418
 31
0.0
  0
LINE
  5
2B9
100
AcDbEntity
  8
1
370
    30
  6
Continuous
 62
     7
100
AcDbLine
 10
374.200168
 20
97.174418
 30
0.0
 11
373.200168
 21
97.174418
 31
0.0
  0
LINE
  5
2BA
100
AcDbEntity
  8
1
370
    30
  6
Continuous
 62
     7
100
AcDbLine
 10
372.200168
 20
101.174418
 30
0.0
 11
378.200168
 21
101.174418
 31
0.0
  0
LINE
  5
2BB
100
AcDbEntity
  8
1
370
    30
  6
Continuous
 62
     7
100
AcDbLine
 10
383.200168
 20
94.674418
 30
0.0
 11
383.200168
 21
93.674418
 31
0.0
  0
LINE
  5
2BC
100
AcDbEntity
  8
1
370
    30
  6
Continuous
 62
     7
100
AcDbLine
 10
398.200168
 20
104.674418
 30
0.0
 11
398.200168
 21
93.674418
 31
0.0
  0
LINE
  5
2BD
100
AcDbEntity
  8
1
370
    30
  6
Continuous
 62
     7
100
AcDbLine
 10
399.200168
 20
104.674418
 30
0.0
 11
398.200168
 21
104.674418
 31
0.0
  0
LINE
  5
2BE
100
AcDbEntity
  8
1
370
    30
  6
Continuous
 62
     7
100
AcDbLine
 10
399.200168
 20
104.674418
 30
0.0
 11
399.200168
 21
92.674418
 31
0.0
  0
LINE
  5
2BF
100
AcDbEntity
  8
1
370
    30
  6
Continuous
 62
     7
100
AcDbLine
 10
382.700168
 20
102.174418
 30
0.0
 11
382.700168
 21
101.174418
 31
0.0
  0
LINE
  5
2C0
100
AcDbEntity
  8
1
370
    30
  6
Continuous
 62
     7
100
AcDbLine
 10
382.700168
 20
101.174418
 30
0.0
 11
377.200168
 21
101.174418
 31
0.0
  0
LINE
  5
2C1
100
AcDbEntity
  8
1
370
    30
  6
Continuous
 62
     7
100
AcDbLine
 10
381.200168
 20
95.424418
 30
0.0
 11
391.200168
 21
95.424418
 31
0.0
  0
LINE
  5
2C2
100
AcDbEntity
  8
1
370
    30
  6
Continuous
 62
     7
100
AcDbLine
 10
379.200168
 20
95.424418
 30
0.0
 11
380.131069
 21
95.424418
 31
0.0
  0
LINE
  5
2C3
100
AcDbEntity
  8
1
370
    30
  6
Continuous
 62
     7
100
AcDbLine
 10
381.200168
 20
100.174418
 30
0.0
 11
389.200168
 21
100.174418
 31
0.0
  0
LINE
  5
2C4
100
AcDbEntity
  8
1
370
    30
  6
Continuous
 62
     7
100
AcDbLine
 10
379.200168
 20
100.174418
 30
0.0
 11
380.293563
 21
100.174418
 31
0.0
  0
LINE
  5
2C5
100
AcDbEntity
  8
1
370
    30
  6
Continuous
 62
     7
100
AcDbLine
 10
381.200168
 20
103.174418
 30
0.0
 11
389.200168
 21
103.174418
 31
0.0
  0
LINE
  5
2C6
100
AcDbEntity
  8
1
370
    30
  6
Continuous
 62
     7
100
AcDbLine
 10
379.200168
 20
103.174418
 30
0.0
 11
380.293563
 21
103.174418
 31
0.0
  0
LINE
  5
2C7
100
AcDbEntity
  8
1
370
    30
  6
Continuous
 62
     7
100
AcDbLine
 10
381.200168
 20
107.924418
 30
0.0
 11
391.200168
 21
107.924418
 31
0.0
  0
LINE
  5
2C8
100
AcDbEntity
  8
1
370
    30
  6
Continuous
 62
     7
100
AcDbLine
 10
379.200168
 20
107.924418
 30
0.0
 11
380.293563
 21
107.924418
 31
0.0
  0
LINE
  5
2C9
100
AcDbEntity
  8
1
370
    30
  6
Continuous
 62
     7
100
AcDbLine
 10
379.200168
 20
100.174418
 30
0.0
 11
379.200168
 21
95.424418
 31
0.0
  0
LINE
  5
2CA
100
AcDbEntity
  8
1
370
    30
  6
Continuous
 62
     7
100
AcDbLine
 10
379.200168
 20
107.924418
 30
0.0
 11
379.200168
 21
103.174418
 31
0.0
  0
LINE
  5
2CB
100
AcDbEntity
  8
1
370
    30
  6
Continuous
 62
     7
100
AcDbLine
 10
381.200168
 20
100.174418
 30
0.0
 11
381.200168
 21
95.424418
 31
0.0
  0
LINE
  5
2CC
100
AcDbEntity
  8
1
370
    30
  6
Continuous
 62
     7
100
AcDbLine
 10
381.200168
 20
107.924418
 30
0.0
 11
381.200168
 21
103.174418
 31
0.0
  0
LINE
  5
2CD
100
AcDbEntity
  8
1
370
    30
  6
Continuous
 62
     7
100
AcDbLine
 10
389.200168
 20
103.174418
 30
0.0
 11
389.200168
 21
100.174418
 31
0.0
  0
LINE
  5
2CE
100
AcDbEntity
  8
1
370
    30
  6
Continuous
 62
     7
100
AcDbLine
 10
391.200168
 20
109.174418
 30
0.0
 11
391.200168
 21
94.674418
 31
0.0
  0
LINE
  5
2CF
100
AcDbEntity
  8
1
370
    30
  6
Continuous
 62
     7
100
AcDbLine
 10
391.200168
 20
109.174418
 30
0.0
 11
393.200168
 21
109.174418
 31
0.0
  0
LINE
  5
2D0
100
AcDbEntity
  8
1
370
    30
  6
Continuous
 62
     7
100
AcDbLine
 10
393.200168
 20
94.674418
 30
0.0
 11
393.200168
 21
109.174418
 31
0.0
  0
LINE
  5
2D1
100
AcDbEntity
  8
1
370
    30
  6
Continuous
 62
     7
100
AcDbLine
 10
391.200168
 20
107.424418
 30
0.0
 11
393.200168
 21
107.424418
 31
0.0
  0
LINE
  5
2D2
100
AcDbEntity
  8
1
370
    30
  6
Continuous
 62
     7
100
AcDbLine
 10
391.200168
 20
95.924418
 30
0.0
 11
393.200168
 21
95.924418
 31
0.0
  0
LINE
  5
2D3
100
AcDbEntity
  8
1
370
    30
  6
Continuous
 62
     7
100
AcDbLine
 10
399.650168
 20
105.674418
 30
0.0
 11
399.950168
 21
105.974418
 31
0.0
  0
LINE
  5
2D4
100
AcDbEntity
  8
1
370
    30
  6
Continuous
 62
     7
100
AcDbLine
 10
394.750168
 20
105.674418
 30
0.0
 11
394.450168
 21
105.974418
 31
0.0
  0
LINE
  5
2D5
100
AcDbEntity
  8
1
370
    30
  6
Continuous
 62
     7
100
AcDbLine
 10
394.450168
 20
105.974418
 30
0.0
 11
399.950168
 21
105.974418
 31
0.0
  0
LINE
  5
2D6
100
AcDbEntity
  8
1
370
    30
  6
Continuous
 62
     7
100
AcDbLine
 10
394.750168
 20
105.674418
 30
0.0
 11
399.650168
 21
105.674418
 31
0.0
  0
LINE
  5
2D7
100
AcDbEntity
  8
1
370
    30
  6
Continuous
 62
     7
100
AcDbLine
 10
399.950168
 20
105.974418
 30
0.0
 11
399.950168
 21
108.674418
 31
0.0
  0
LINE
  5
2D8
100
AcDbEntity
  8
1
370
    30
  6
Continuous
 62
     7
100
AcDbLine
 10
394.450168
 20
105.974418
 30
0.0
 11
394.450168
 21
108.674418
 31
0.0
  0
LINE
  5
2D9
100
AcDbEntity
  8
1
370
    30
  6
Continuous
 62
     7
100
AcDbLine
 10
400.200168
 20
109.674418
 30
0.0
 11
400.200168
 21
108.674418
 31
0.0
  0
LINE
  5
2DA
100
AcDbEntity
  8
1
370
    30
  6
Continuous
 62
     7
100
AcDbLine
 10
394.200168
 20
108.674418
 30
0.0
 11
400.200168
 21
108.674418
 31
0.0
  0
LINE
  5
2DB
100
AcDbEntity
  8
1
370
    30
  6
Continuous
 62
     7
100
AcDbLine
 10
394.200168
 20
108.674418
 30
0.0
 11
394.200168
 21
93.674418
 31
0.0
  0
LINE
  5
2DC
100
AcDbEntity
  8
1
370
    30
  6
Continuous
 62
     7
100
AcDbLine
 10
383.200168
 20
94.674418
 30
0.0
 11
393.200168
 21
94.674418
 31
0.0
  0
LINE
  5
2DD
100
AcDbEntity
  8
1
370
    30
  6
Continuous
 62
     7
100
AcDbLine
 10
393.200168
 20
109.674418
 30
0.0
 11
393.200168
 21
94.674418
 31
0.0
  0
ARC
  5
2DE
100
AcDbEntity
  8
1
370
    30
  6
Continuous
 62
     7
100
AcDbCircle
 10
395.200168
 20
148.674418
 30
0.0
 40
3.0
100
AcDbArc
 50
0.0
 51
90.0
  0
LINE
  5
2DF
100
AcDbEntity
  8
1
370
    30
  6
Continuous
 62
     7
100
AcDbLine
 10
398.200168
 20
148.674418
 30
0.0
 11
398.200168
 21
130.674418
 31
0.0
  0
ARC
  5
2E0
100
AcDbEntity
  8
1
370
    30
  6
Continuous
 62
     7
100
AcDbCircle
 10
395.200168
 20
130.674418
 30
0.0
 40
3.0
100
AcDbArc
 50
-90.0
 51
0.0
  0
ARC
  5
2E1
100
AcDbEntity
  8
1
370
    30
  6
Continuous
 62
     7
100
AcDbCircle
 10
377.200168
 20
130.674418
 30
0.0
 40
3.0
100
AcDbArc
 50
180.0
 51
-90.0
  0
LINE
  5
2E2
100
AcDbEntity
  8
1
370
    30
  6
Continuous
 62
     7
100
AcDbLine
 10
374.200168
 20
148.674418
 30
0.0
 11
374.200168
 21
130.674418
 31
0.0
  0
ARC
  5
2E3
100
AcDbEntity
  8
1
370
    30
  6
Continuous
 62
     7
100
AcDbCircle
 10
377.200168
 20
148.674418
 30
0.0
 40
3.0
100
AcDbArc
 50
90.0
 51
180.0
  0
LINE
  5
2E4
100
AcDbEntity
  8
1
370
    30
  6
Continuous
 62
     7
100
AcDbLine
 10
394.450168
 20
132.674418
 30
0.0
 11
394.450168
 21
131.424418
 31
0.0
  0
LINE
  5
2E5
100
AcDbEntity
  8
1
370
    30
  6
Continuous
 62
     7
100
AcDbLine
 10
394.450168
 20
131.424418
 30
0.0
 11
393.200168
 21
131.424418
 31
0.0
  0
LINE
  5
2E6
100
AcDbEntity
  8
1
370
    30
  6
Continuous
 62
     7
100
AcDbLine
 10
394.950168
 20
132.674418
 30
0.0
 11
394.450168
 21
132.674418
 31
0.0
  0
LINE
  5
2E7
100
AcDbEntity
  8
1
370
    30
  6
Continuous
 62
     7
100
AcDbLine
 10
393.200168
 20
131.424418
 30
0.0
 11
393.200168
 21
130.924418
 31
0.0
  0
LINE
  5
2E8
100
AcDbEntity
  8
1
370
    30
  6
Continuous
 62
     7
100
AcDbLine
 10
393.200168
 20
130.924418
 30
0.0
 11
394.450168
 21
130.924418
 31
0.0
  0
LINE
  5
2E9
100
AcDbEntity
  8
1
370
    30
  6
Continuous
 62
     7
100
AcDbLine
 10
394.450168
 20
130.924418
 30
0.0
 11
394.450168
 21
129.674418
 31
0.0
  0
LINE
  5
2EA
100
AcDbEntity
  8
1
370
    30
  6
Continuous
 62
     7
100
AcDbLine
 10
394.450168
 20
129.674418
 30
0.0
 11
394.950168
 21
129.674418
 31
0.0
  0
LINE
  5
2EB
100
AcDbEntity
  8
1
370
    30
  6
Continuous
 62
     7
100
AcDbLine
 10
394.950168
 20
129.674418
 30
0.0
 11
394.950168
 21
130.924418
 31
0.0
  0
LINE
  5
2EC
100
AcDbEntity
  8
1
370
    30
  6
Continuous
 62
     7
100
AcDbLine
 10
394.950168
 20
130.924418
 30
0.0
 11
396.200168
 21
130.924418
 31
0.0
  0
LINE
  5
2ED
100
AcDbEntity
  8
1
370
    30
  6
Continuous
 62
     7
100
AcDbLine
 10
396.200168
 20
130.924418
 30
0.0
 11
396.200168
 21
131.424418
 31
0.0
  0
LINE
  5
2EE
100
AcDbEntity
  8
1
370
    30
  6
Continuous
 62
     7
100
AcDbLine
 10
396.200168
 20
131.424418
 30
0.0
 11
394.950168
 21
131.424418
 31
0.0
  0
LINE
  5
2EF
100
AcDbEntity
  8
1
370
    30
  6
Continuous
 62
     7
100
AcDbLine
 10
394.950168
 20
131.424418
 30
0.0
 11
394.950168
 21
132.674418
 31
0.0
  0
CIRCLE
  5
2F0
100
AcDbEntity
  8
1
370
    30
  6
Continuous
 62
     7
100
AcDbCircle
 10
394.700168
 20
131.174418
 30
0.0
 40
2.25
  0
LINE
  5
2F1
100
AcDbEntity
  8
1
370
    30
  6
Continuous
 62
     7
100
AcDbLine
 10
391.700168
 20
131.174418
 30
0.0
 11
391.700168
 21
127.674418
 31
0.0
  0
LINE
  5
2F2
100
AcDbEntity
  8
1
370
    30
  6
Continuous
 62
     7
100
AcDbLine
 10
394.700168
 20
134.174418
 30
0.0
 11
398.200168
 21
134.174418
 31
0.0
  0
ARC
  5
2F3
100
AcDbEntity
  8
1
370
    30
  6
Continuous
 62
     7
100
AcDbCircle
 10
394.700168
 20
131.174418
 30
0.0
 40
3.0
100
AcDbArc
 50
90.0
 51
180.0
  0
LINE
  5
2F4
100
AcDbEntity
  8
1
370
     9
  6
CENTER
 62
     7
100
AcDbLine
 10
394.700168
 20
134.753818
 30
0.0
 11
394.700168
 21
127.11415
 31
0.0
  0
LINE
  5
2F5
100
AcDbEntity
  8
1
370
     9
  6
CENTER
 62
     7
100
AcDbLine
 10
398.223127
 20
131.174418
 30
0.0
 11
390.814964
 21
131.174418
 31
0.0
  0
LINE
  5
2F6
100
AcDbEntity
  8
1
370
    30
  6
Continuous
 62
     7
100
AcDbLine
 10
393.200168
 20
147.924418
 30
0.0
 11
394.450168
 21
147.924418
 31
0.0
  0
LINE
  5
2F7
100
AcDbEntity
  8
1
370
    30
  6
Continuous
 62
     7
100
AcDbLine
 10
394.450168
 20
147.924418
 30
0.0
 11
394.450168
 21
146.674418
 31
0.0
  0
LINE
  5
2F8
100
AcDbEntity
  8
1
370
    30
  6
Continuous
 62
     7
100
AcDbLine
 10
393.200168
 20
148.424418
 30
0.0
 11
393.200168
 21
147.924418
 31
0.0
  0
LINE
  5
2F9
100
AcDbEntity
  8
1
370
    30
  6
Continuous
 62
     7
100
AcDbLine
 10
394.450168
 20
146.674418
 30
0.0
 11
394.950168
 21
146.674418
 31
0.0
  0
LINE
  5
2FA
100
AcDbEntity
  8
1
370
    30
  6
Continuous
 62
     7
100
AcDbLine
 10
394.950168
 20
146.674418
 30
0.0
 11
394.950168
 21
147.924418
 31
0.0
  0
LINE
  5
2FB
100
AcDbEntity
  8
1
370
    30
  6
Continuous
 62
     7
100
AcDbLine
 10
394.950168
 20
147.924418
 30
0.0
 11
396.200168
 21
147.924418
 31
0.0
  0
LINE
  5
2FC
100
AcDbEntity
  8
1
370
    30
  6
Continuous
 62
     7
100
AcDbLine
 10
396.200168
 20
147.924418
 30
0.0
 11
396.200168
 21
148.424418
 31
0.0
  0
LINE
  5
2FD
100
AcDbEntity
  8
1
370
    30
  6
Continuous
 62
     7
100
AcDbLine
 10
396.200168
 20
148.424418
 30
0.0
 11
394.950168
 21
148.424418
 31
0.0
  0
LINE
  5
2FE
100
AcDbEntity
  8
1
370
    30
  6
Continuous
 62
     7
100
AcDbLine
 10
394.950168
 20
148.424418
 30
0.0
 11
394.950168
 21
149.674418
 31
0.0
  0
LINE
  5
2FF
100
AcDbEntity
  8
1
370
    30
  6
Continuous
 62
     7
100
AcDbLine
 10
394.950168
 20
149.674418
 30
0.0
 11
394.450168
 21
149.674418
 31
0.0
  0
LINE
  5
300
100
AcDbEntity
  8
1
370
    30
  6
Continuous
 62
     7
100
AcDbLine
 10
394.450168
 20
149.674418
 30
0.0
 11
394.450168
 21
148.424418
 31
0.0
  0
LINE
  5
301
100
AcDbEntity
  8
1
370
    30
  6
Continuous
 62
     7
100
AcDbLine
 10
394.450168
 20
148.424418
 30
0.0
 11
393.200168
 21
148.424418
 31
0.0
  0
CIRCLE
  5
302
100
AcDbEntity
  8
1
370
    30
  6
Continuous
 62
     7
100
AcDbCircle
 10
394.700168
 20
148.174418
 30
0.0
 40
2.25
  0
LINE
  5
303
100
AcDbEntity
  8
1
370
    30
  6
Continuous
 62
     7
100
AcDbLine
 10
394.700168
 20
145.174418
 30
0.0
 11
398.200168
 21
145.174418
 31
0.0
  0
LINE
  5
304
100
AcDbEntity
  8
1
370
    30
  6
Continuous
 62
     7
100
AcDbLine
 10
391.700168
 20
148.174418
 30
0.0
 11
391.700168
 21
151.674418
 31
0.0
  0
ARC
  5
305
100
AcDbEntity
  8
1
370
    30
  6
Continuous
 62
     7
100
AcDbCircle
 10
394.700168
 20
148.174418
 30
0.0
 40
3.0
100
AcDbArc
 50
180.0
 51
-90.0
  0
LINE
  5
306
100
AcDbEntity
  8
1
370
     9
  6
CENTER
 62
     7
100
AcDbLine
 10
391.120768
 20
148.174418
 30
0.0
 11
398.760436
 21
148.174418
 31
0.0
  0
LINE
  5
307
100
AcDbEntity
  8
1
370
     9
  6
CENTER
 62
     7
100
AcDbLine
 10
394.700168
 20
151.697377
 30
0.0
 11
394.700168
 21
144.289214
 31
0.0
  0
LINE
  5
308
100
AcDbEntity
  8
1
370
    30
  6
Continuous
 62
     7
100
AcDbLine
 10
377.950168
 20
146.674418
 30
0.0
 11
377.950168
 21
147.924418
 31
0.0
  0
LINE
  5
309
100
AcDbEntity
  8
1
370
    30
  6
Continuous
 62
     7
100
AcDbLine
 10
377.950168
 20
147.924418
 30
0.0
 11
379.200168
 21
147.924418
 31
0.0
  0
LINE
  5
30A
100
AcDbEntity
  8
1
370
    30
  6
Continuous
 62
     7
100
AcDbLine
 10
377.450168
 20
146.674418
 30
0.0
 11
377.950168
 21
146.674418
 31
0.0
  0
LINE
  5
30B
100
AcDbEntity
  8
1
370
    30
  6
Continuous
 62
     7
100
AcDbLine
 10
379.200168
 20
147.924418
 30
0.0
 11
379.200168
 21
148.424418
 31
0.0
  0
LINE
  5
30C
100
AcDbEntity
  8
1
370
    30
  6
Continuous
 62
     7
100
AcDbLine
 10
379.200168
 20
148.424418
 30
0.0
 11
377.950168
 21
148.424418
 31
0.0
  0
LINE
  5
30D
100
AcDbEntity
  8
1
370
    30
  6
Continuous
 62
     7
100
AcDbLine
 10
377.950168
 20
148.424418
 30
0.0
 11
377.950168
 21
149.674418
 31
0.0
  0
LINE
  5
30E
100
AcDbEntity
  8
1
370
    30
  6
Continuous
 62
     7
100
AcDbLine
 10
377.950168
 20
149.674418
 30
0.0
 11
377.450168
 21
149.674418
 31
0.0
  0
LINE
  5
30F
100
AcDbEntity
  8
1
370
    30
  6
Continuous
 62
     7
100
AcDbLine
 10
377.450168
 20
149.674418
 30
0.0
 11
377.450168
 21
148.424418
 31
0.0
  0
LINE
  5
310
100
AcDbEntity
  8
1
370
    30
  6
Continuous
 62
     7
100
AcDbLine
 10
377.450168
 20
148.424418
 30
0.0
 11
376.200168
 21
148.424418
 31
0.0
  0
LINE
  5
311
100
AcDbEntity
  8
1
370
    30
  6
Continuous
 62
     7
100
AcDbLine
 10
376.200168
 20
148.424418
 30
0.0
 11
376.200168
 21
147.924418
 31
0.0
  0
LINE
  5
312
100
AcDbEntity
  8
1
370
    30
  6
Continuous
 62
     7
100
AcDbLine
 10
376.200168
 20
147.924418
 30
0.0
 11
377.450168
 21
147.924418
 31
0.0
  0
LINE
  5
313
100
AcDbEntity
  8
1
370
    30
  6
Continuous
 62
     7
100
AcDbLine
 10
377.450168
 20
147.924418
 30
0.0
 11
377.450168
 21
146.674418
 31
0.0
  0
CIRCLE
  5
314
100
AcDbEntity
  8
1
370
    30
  6
Continuous
 62
     7
100
AcDbCircle
 10
377.700168
 20
148.174418
 30
0.0
 40
2.25
  0
LINE
  5
315
100
AcDbEntity
  8
1
370
    30
  6
Continuous
 62
     7
100
AcDbLine
 10
380.700168
 20
148.174418
 30
0.0
 11
380.700168
 21
151.674418
 31
0.0
  0
LINE
  5
316
100
AcDbEntity
  8
1
370
    30
  6
Continuous
 62
     7
100
AcDbLine
 10
377.700168
 20
145.174418
 30
0.0
 11
374.200168
 21
145.174418
 31
0.0
  0
ARC
  5
317
100
AcDbEntity
  8
1
370
    30
  6
Continuous
 62
     7
100
AcDbCircle
 10
377.700168
 20
148.174418
 30
0.0
 40
3.0
100
AcDbArc
 50
-90.0
 51
0.0
  0
LINE
  5
318
100
AcDbEntity
  8
1
370
     9
  6
CENTER
 62
     7
100
AcDbLine
 10
377.700168
 20
144.595018
 30
0.0
 11
377.700168
 21
152.234686
 31
0.0
  0
LINE
  5
319
100
AcDbEntity
  8
1
370
     9
  6
CENTER
 62
     7
100
AcDbLine
 10
374.177209
 20
148.174418
 30
0.0
 11
381.585372
 21
148.174418
 31
0.0
  0
LINE
  5
31A
100
AcDbEntity
  8
1
370
    30
  6
Continuous
 62
     7
100
AcDbLine
 10
379.200168
 20
131.424418
 30
0.0
 11
377.950168
 21
131.424418
 31
0.0
  0
LINE
  5
31B
100
AcDbEntity
  8
1
370
    30
  6
Continuous
 62
     7
100
AcDbLine
 10
377.950168
 20
131.424418
 30
0.0
 11
377.950168
 21
132.674418
 31
0.0
  0
LINE
  5
31C
100
AcDbEntity
  8
1
370
    30
  6
Continuous
 62
     7
100
AcDbLine
 10
379.200168
 20
130.924418
 30
0.0
 11
379.200168
 21
131.424418
 31
0.0
  0
LINE
  5
31D
100
AcDbEntity
  8
1
370
    30
  6
Continuous
 62
     7
100
AcDbLine
 10
377.950168
 20
132.674418
 30
0.0
 11
377.450168
 21
132.674418
 31
0.0
  0
LINE
  5
31E
100
AcDbEntity
  8
1
370
    30
  6
Continuous
 62
     7
100
AcDbLine
 10
377.450168
 20
132.674418
 30
0.0
 11
377.450168
 21
131.424418
 31
0.0
  0
LINE
  5
31F
100
AcDbEntity
  8
1
370
    30
  6
Continuous
 62
     7
100
AcDbLine
 10
377.450168
 20
131.424418
 30
0.0
 11
376.200168
 21
131.424418
 31
0.0
  0
LINE
  5
320
100
AcDbEntity
  8
1
370
    30
  6
Continuous
 62
     7
100
AcDbLine
 10
376.200168
 20
131.424418
 30
0.0
 11
376.200168
 21
130.924418
 31
0.0
  0
LINE
  5
321
100
AcDbEntity
  8
1
370
    30
  6
Continuous
 62
     7
100
AcDbLine
 10
376.200168
 20
130.924418
 30
0.0
 11
377.450168
 21
130.924418
 31
0.0
  0
LINE
  5
322
100
AcDbEntity
  8
1
370
    30
  6
Continuous
 62
     7
100
AcDbLine
 10
377.450168
 20
130.924418
 30
0.0
 11
377.450168
 21
129.674418
 31
0.0
  0
LINE
  5
323
100
AcDbEntity
  8
1
370
    30
  6
Continuous
 62
     7
100
AcDbLine
 10
377.450168
 20
129.674418
 30
0.0
 11
377.950168
 21
129.674418
 31
0.0
  0
LINE
  5
324
100
AcDbEntity
  8
1
370
    30
  6
Continuous
 62
     7
100
AcDbLine
 10
377.950168
 20
129.674418
 30
0.0
 11
377.950168
 21
130.924418
 31
0.0
  0
LINE
  5
325
100
AcDbEntity
  8
1
370
    30
  6
Continuous
 62
     7
100
AcDbLine
 10
377.950168
 20
130.924418
 30
0.0
 11
379.200168
 21
130.924418
 31
0.0
  0
CIRCLE
  5
326
100
AcDbEntity
  8
1
370
    30
  6
Continuous
 62
     7
100
AcDbCircle
 10
377.700168
 20
131.174418
 30
0.0
 40
2.25
  0
LINE
  5
327
100
AcDbEntity
  8
1
370
    30
  6
Continuous
 62
     7
100
AcDbLine
 10
377.700168
 20
134.174418
 30
0.0
 11
374.200168
 21
134.174418
 31
0.0
  0
LINE
  5
328
100
AcDbEntity
  8
1
370
    30
  6
Continuous
 62
     7
100
AcDbLine
 10
380.700168
 20
131.174418
 30
0.0
 11
380.700168
 21
127.674418
 31
0.0
  0
ARC
  5
329
100
AcDbEntity
  8
1
370
    30
  6
Continuous
 62
     7
100
AcDbCircle
 10
377.700168
 20
131.174418
 30
0.0
 40
3.0
100
AcDbArc
 50
0.0
 51
90.0
  0
LINE
  5
32A
100
AcDbEntity
  8
1
370
     9
  6
CENTER
 62
     7
100
AcDbLine
 10
381.279568
 20
131.174418
 30
0.0
 11
373.6399
 21
131.174418
 31
0.0
  0
LINE
  5
32B
100
AcDbEntity
  8
1
370
     9
  6
CENTER
 62
     7
100
AcDbLine
 10
377.700168
 20
127.651459
 30
0.0
 11
377.700168
 21
135.059622
 31
0.0
  0
LINE
  5
32C
100
AcDbEntity
  8
1
370
    30
  6
Continuous
 62
     7
100
AcDbLine
 10
377.200168
 20
151.674418
 30
0.0
 11
395.200168
 21
151.674418
 31
0.0
  0
LINE
  5
32D
100
AcDbEntity
  8
1
370
    30
  6
Continuous
 62
     7
100
AcDbLine
 10
377.200168
 20
127.674418
 30
0.0
 11
395.200168
 21
127.674418
 31
0.0
  0
CIRCLE
  5
32E
100
AcDbEntity
  8
1
370
    30
  6
Continuous
 62
     7
100
AcDbCircle
 10
386.200168
 20
139.674418
 30
0.0
 40
2.5
  0
LINE
  5
32F
100
AcDbEntity
  8
1
370
     9
  6
CENTER
 62
     7
100
AcDbLine
 10
403.40161
 20
114.674418
 30
0.0
 11
386.200168
 21
114.674418
 31
0.0
  0
LINE
  5
330
100
AcDbEntity
  8
1
370
    30
  6
Continuous
 62
     7
100
AcDbLine
 10
386.200168
 20
169.674418
 30
0.0
 11
386.200168
 21
164.674418
 31
0.0
  0
LINE
  5
331
100
AcDbEntity
  8
1
370
    30
  6
Continuous
 62
     7
100
AcDbLine
 10
386.200168
 20
114.674418
 30
0.0
 11
386.200168
 21
109.674418
 31
0.0
  0
LINE
  5
332
100
AcDbEntity
  8
1
370
     9
  6
CENTER
 62
     7
100
AcDbLine
 10
402.871084
 20
139.674418
 30
0.0
 11
369.756793
 21
139.674418
 31
0.0
  0
LINE
  5
333
100
AcDbEntity
  8
1
370
     9
  6
CENTER
 62
     7
100
AcDbLine
 10
386.200168
 20
164.674418
 30
0.0
 11
403.684035
 21
164.674418
 31
0.0
  0
LINE
  5
334
100
AcDbEntity
  8
1
370
    30
  6
Continuous
 62
     7
100
AcDbLine
 10
401.200168
 20
109.674418
 30
0.0
 11
401.200168
 21
119.674418
 31
0.0
  0
LINE
  5
335
100
AcDbEntity
  8
1
370
    30
  6
Continuous
 62
     7
100
AcDbLine
 10
371.200168
 20
168.674418
 30
0.0
 11
372.200168
 21
169.674418
 31
0.0
  0
LINE
  5
336
100
AcDbEntity
  8
1
370
    30
  6
Continuous
 62
     7
100
AcDbLine
 10
372.200168
 20
109.674418
 30
0.0
 11
371.200168
 21
110.674418
 31
0.0
  0
LINE
  5
337
100
AcDbEntity
  8
1
370
    30
  6
Continuous
 62
     7
100
AcDbLine
 10
401.200168
 20
159.674418
 30
0.0
 11
401.200168
 21
169.674418
 31
0.0
  0
LINE
  5
338
100
AcDbEntity
  8
1
370
    30
  6
Continuous
 62
     7
100
AcDbLine
 10
401.200168
 20
119.674418
 30
0.0
 11
400.700168
 21
119.674418
 31
0.0
  0
LINE
  5
339
100
AcDbEntity
  8
1
370
    30
  6
Continuous
 62
     7
100
AcDbLine
 10
400.700168
 20
119.674418
 30
0.0
 11
400.700168
 21
159.674418
 31
0.0
  0
LINE
  5
33A
100
AcDbEntity
  8
1
370
    30
  6
Continuous
 62
     7
100
AcDbLine
 10
400.700168
 20
159.674418
 30
0.0
 11
401.200168
 21
159.674418
 31
0.0
  0
LINE
  5
33B
100
AcDbEntity
  8
1
370
     9
  6
CENTER
 62
     7
100
AcDbLine
 10
382.105154
 20
119.674418
 30
0.0
 11
390.235154
 21
119.674418
 31
0.0
  0
LINE
  5
33C
100
AcDbEntity
  8
1
370
     9
  6
CENTER
 62
     7
100
AcDbLine
 10
386.200168
 20
116.159163
 30
0.0
 11
386.200168
 21
163.436365
 31
0.0
  0
CIRCLE
  5
33D
100
AcDbEntity
  8
1
370
    30
  6
Continuous
 62
     7
100
AcDbCircle
 10
386.200168
 20
119.674418
 30
0.0
 40
3.0
  0
LINE
  5
33E
100
AcDbEntity
  8
1
370
    30
  6
Continuous
 62
     7
100
AcDbLine
 10
385.478481
 20
120.924419
 30
0.0
 11
384.756793
 21
119.674419
 31
0.0
  0
LINE
  5
33F
100
AcDbEntity
  8
1
370
    30
  6
Continuous
 62
     7
100
AcDbLine
 10
384.756793
 20
119.674419
 30
0.0
 11
385.478481
 21
118.424419
 31
0.0
  0
LINE
  5
340
100
AcDbEntity
  8
1
370
    30
  6
Continuous
 62
     7
100
AcDbLine
 10
386.921855
 20
118.424419
 30
0.0
 11
385.478481
 21
118.424419
 31
0.0
  0
LINE
  5
341
100
AcDbEntity
  8
1
370
    30
  6
Continuous
 62
     7
100
AcDbLine
 10
386.921855
 20
120.924419
 30
0.0
 11
385.478481
 21
120.924419
 31
0.0
  0
LINE
  5
342
100
AcDbEntity
  8
1
370
    30
  6
Continuous
 62
     7
100
AcDbLine
 10
386.921855
 20
120.924419
 30
0.0
 11
387.643543
 21
119.674419
 31
0.0
  0
LINE
  5
343
100
AcDbEntity
  8
1
370
    30
  6
Continuous
 62
     7
100
AcDbLine
 10
387.643543
 20
119.674419
 30
0.0
 11
386.921855
 21
118.424419
 31
0.0
  0
CIRCLE
  5
344
100
AcDbEntity
  8
1
370
    30
  6
Continuous
 62
     7
100
AcDbCircle
 10
386.200167
 20
119.674418
 30
0.0
 40
2.75
  0
LINE
  5
345
100
AcDbEntity
  8
1
370
     9
  6
CENTER
 62
     7
100
AcDbLine
 10
390.295182
 20
159.674418
 30
0.0
 11
382.165182
 21
159.674418
 31
0.0
  0
CIRCLE
  5
346
100
AcDbEntity
  8
1
370
    30
  6
Continuous
 62
     7
100
AcDbCircle
 10
386.200168
 20
159.674418
 30
0.0
 40
3.0
  0
LINE
  5
347
100
AcDbEntity
  8
1
370
    30
  6
Continuous
 62
     7
100
AcDbLine
 10
386.921855
 20
158.424417
 30
0.0
 11
387.643543
 21
159.674417
 31
0.0
  0
LINE
  5
348
100
AcDbEntity
  8
1
370
    30
  6
Continuous
 62
     7
100
AcDbLine
 10
387.643543
 20
159.674417
 30
0.0
 11
386.921855
 21
160.924417
 31
0.0
  0
LINE
  5
349
100
AcDbEntity
  8
1
370
    30
  6
Continuous
 62
     7
100
AcDbLine
 10
385.478481
 20
160.924417
 30
0.0
 11
386.921855
 21
160.924417
 31
0.0
  0
LINE
  5
34A
100
AcDbEntity
  8
1
370
    30
  6
Continuous
 62
     7
100
AcDbLine
 10
385.478481
 20
158.424417
 30
0.0
 11
386.921855
 21
158.424417
 31
0.0
  0
LINE
  5
34B
100
AcDbEntity
  8
1
370
    30
  6
Continuous
 62
     7
100
AcDbLine
 10
385.478481
 20
158.424417
 30
0.0
 11
384.756793
 21
159.674417
 31
0.0
  0
LINE
  5
34C
100
AcDbEntity
  8
1
370
    30
  6
Continuous
 62
     7
100
AcDbLine
 10
384.756793
 20
159.674417
 30
0.0
 11
385.478481
 21
160.924417
 31
0.0
  0
CIRCLE
  5
34D
100
AcDbEntity
  8
1
370
    30
  6
Continuous
 62
     7
100
AcDbCircle
 10
386.200169
 20
159.674418
 30
0.0
 40
2.75
  0
LINE
  5
34E
100
AcDbEntity
  8
1
370
    30
  6
Continuous
 62
     7
100
AcDbLine
 10
260.197985
 20
114.674418
 30
0.0
 11
260.197985
 21
164.674418
 31
0.0
  0
LINE
  5
34F
100
AcDbEntity
  8
1
370
    30
  6
Continuous
 62
     7
100
AcDbLine
 10
261.197985
 20
50.674418
 30
0.0
 11
255.197985
 21
50.674418
 31
0.0
  0
LINE
  5
350
100
AcDbEntity
  8
1
370
    30
  6
Continuous
 62
     7
100
AcDbLine
 10
261.197985
 20
24.674418
 30
0.0
 11
260.197985
 21
23.674418
 31
0.0
  0
LINE
  5
351
100
AcDbEntity
  8
1
370
    30
  6
Continuous
 62
     7
100
AcDbLine
 10
255.197985
 20
23.674418
 30
0.0
 11
260.197985
 21
23.674418
 31
0.0
  0
LINE
  5
352
100
AcDbEntity
  8
1
370
    30
  6
Continuous
 62
     7
100
AcDbLine
 10
261.197985
 20
50.674418
 30
0.0
 11
261.197985
 21
24.674418
 31
0.0
  0
LINE
  5
353
100
AcDbEntity
  8
1
370
    30
  6
Continuous
 62
     7
100
AcDbLine
 10
260.197985
 20
51.674418
 30
0.0
 11
261.197985
 21
50.674418
 31
0.0
  0
LINE
  5
354
100
AcDbEntity
  8
1
370
    30
  6
Continuous
 62
     7
100
AcDbLine
 10
255.197985
 20
51.674418
 30
0.0
 11
260.197985
 21
51.674418
 31
0.0
  0
LINE
  5
355
100
AcDbEntity
  8
1
370
    30
  6
Continuous
 62
     7
100
AcDbLine
 10
255.197985
 20
115.674418
 30
0.0
 11
261.197985
 21
115.674418
 31
0.0
  0
LINE
  5
356
100
AcDbEntity
  8
1
370
    30
  6
Continuous
 62
     7
100
AcDbLine
 10
255.197985
 20
163.674418
 30
0.0
 11
261.197985
 21
163.674418
 31
0.0
  0
LINE
  5
357
100
AcDbEntity
  8
1
370
    30
  6
Continuous
 62
     7
100
AcDbLine
 10
250.197985
 20
163.674418
 30
0.0
 11
255.197985
 21
163.674418
 31
0.0
  0
LINE
  5
358
100
AcDbEntity
  8
1
370
    30
  6
Continuous
 62
     7
100
AcDbLine
 10
250.197985
 20
115.674418
 30
0.0
 11
255.197985
 21
115.674418
 31
0.0
  0
LINE
  5
359
100
AcDbEntity
  8
1
370
    30
  6
Continuous
 62
     7
100
AcDbLine
 10
250.197985
 20
50.674418
 30
0.0
 11
255.197985
 21
50.674418
 31
0.0
  0
LINE
  5
35A
100
AcDbEntity
  8
1
370
    30
  6
Continuous
 62
     7
100
AcDbLine
 10
241.197985
 20
32.674418
 30
0.0
 11
241.197985
 21
27.674418
 31
0.0
  0
LINE
  5
35B
100
AcDbEntity
  8
1
370
    30
  6
Continuous
 62
     7
100
AcDbLine
 10
214.697985
 20
156.174418
 30
0.0
 11
209.697985
 21
156.174418
 31
0.0
  0
LINE
  5
35C
100
AcDbEntity
  8
1
370
    30
  6
Continuous
 62
     7
100
AcDbLine
 10
214.697985
 20
163.674418
 30
0.0
 11
209.697985
 21
163.674418
 31
0.0
  0
LINE
  5
35D
100
AcDbEntity
  8
1
370
    30
  6
Continuous
 62
     7
100
AcDbLine
 10
214.697985
 20
115.674418
 30
0.0
 11
209.697985
 21
115.674418
 31
0.0
  0
LINE
  5
35E
100
AcDbEntity
  8
1
370
    30
  6
Continuous
 62
     7
100
AcDbLine
 10
214.697985
 20
123.174418
 30
0.0
 11
209.697985
 21
123.174418
 31
0.0
  0
LINE
  5
35F
100
AcDbEntity
  8
1
370
    30
  6
Continuous
 62
     7
100
AcDbLine
 10
214.697985
 20
34.874418
 30
0.0
 11
209.697985
 21
34.874418
 31
0.0
  0
LINE
  5
360
100
AcDbEntity
  8
1
370
    30
  6
Continuous
 62
     7
100
AcDbLine
 10
254.197985
 20
27.674418
 30
0.0
 11
254.197985
 21
22.874418
 31
0.0
  0
LINE
  5
361
100
AcDbEntity
  8
1
370
    30
  6
Continuous
 62
     7
100
AcDbLine
 10
54.197985
 20
110.674418
 30
0.0
 11
39.697985
 21
110.674418
 31
0.0
  0
LINE
  5
362
100
AcDbEntity
  8
1
370
    30
  6
Continuous
 62
     7
100
AcDbLine
 10
54.197985
 20
168.674418
 30
0.0
 11
39.697985
 21
168.674418
 31
0.0
  0
LINE
  5
363
100
AcDbEntity
  8
1
370
    30
  6
Continuous
 62
     7
100
AcDbLine
 10
69.697985
 20
168.674418
 30
0.0
 11
54.697985
 21
168.674418
 31
0.0
  0
LINE
  5
364
100
AcDbEntity
  8
1
370
    30
  6
Continuous
 62
     7
100
AcDbLine
 10
69.697985
 20
110.674418
 30
0.0
 11
54.697985
 21
110.674418
 31
0.0
  0
LINE
  5
365
100
AcDbEntity
  8
1
370
    30
  6
Continuous
 62
     7
100
AcDbLine
 10
68.697985
 20
169.674418
 30
0.0
 11
68.697985
 21
109.674418
 31
0.0
  0
LINE
  5
366
100
AcDbEntity
  8
1
370
    30
  6
Continuous
 62
     7
100
AcDbLine
 10
39.697985
 20
109.674418
 30
0.0
 11
54.197985
 21
109.674418
 31
0.0
  0
LINE
  5
367
100
AcDbEntity
  8
1
370
    30
  6
Continuous
 62
     7
100
AcDbLine
 10
54.197985
 20
109.674418
 30
0.0
 11
54.197985
 21
123.674418
 31
0.0
  0
LINE
  5
368
100
AcDbEntity
  8
1
370
    30
  6
Continuous
 62
     7
100
AcDbLine
 10
54.697985
 20
123.674418
 30
0.0
 11
54.197985
 21
123.674418
 31
0.0
  0
LINE
  5
369
100
AcDbEntity
  8
1
370
    30
  6
Continuous
 62
     7
100
AcDbLine
 10
39.697985
 20
169.674418
 30
0.0
 11
54.197985
 21
169.674418
 31
0.0
  0
LINE
  5
36A
100
AcDbEntity
  8
1
370
    30
  6
Continuous
 62
     7
100
AcDbLine
 10
54.197985
 20
169.674418
 30
0.0
 11
54.197985
 21
155.674418
 31
0.0
  0
LINE
  5
36B
100
AcDbEntity
  8
1
370
    30
  6
Continuous
 62
     7
100
AcDbLine
 10
54.697985
 20
155.674418
 30
0.0
 11
54.197985
 21
155.674418
 31
0.0
  0
LINE
  5
36C
100
AcDbEntity
  8
1
370
    30
  6
Continuous
 62
     7
100
AcDbLine
 10
40.197985
 20
120.174418
 30
0.0
 11
39.697985
 21
119.674418
 31
0.0
  0
LINE
  5
36D
100
AcDbEntity
  8
1
370
    30
  6
Continuous
 62
     7
100
AcDbLine
 10
39.697985
 20
109.674418
 30
0.0
 11
39.697985
 21
119.674418
 31
0.0
  0
LINE
  5
36E
100
AcDbEntity
  8
1
370
    30
  6
Continuous
 62
     7
100
AcDbLine
 10
39.697985
 20
169.674418
 30
0.0
 11
39.697985
 21
159.674418
 31
0.0
  0
LINE
  5
36F
100
AcDbEntity
  8
1
370
    30
  6
Continuous
 62
     7
100
AcDbLine
 10
57.697985
 20
128.674418
 30
0.0
 11
55.197985
 21
128.674418
 31
0.0
  0
LINE
  5
370
100
AcDbEntity
  8
1
370
    30
  6
Continuous
 62
     7
100
AcDbLine
 10
55.197985
 20
128.674418
 30
0.0
 11
54.844431
 21
129.027972
 31
0.0
  0
LINE
  5
371
100
AcDbEntity
  8
1
370
    30
  6
Continuous
 62
     7
100
AcDbLine
 10
54.844431
 20
129.027972
 30
0.0
 11
54.344431
 21
128.527972
 31
0.0
  0
LINE
  5
372
100
AcDbEntity
  8
1
370
    30
  6
Continuous
 62
     7
100
AcDbLine
 10
54.697985
 20
128.174418
 30
0.0
 11
54.344431
 21
128.527972
 31
0.0
  0
LINE
  5
373
100
AcDbEntity
  8
1
370
    30
  6
Continuous
 62
     7
100
AcDbLine
 10
54.697985
 20
123.674418
 30
0.0
 11
54.697985
 21
128.174418
 31
0.0
  0
LINE
  5
374
100
AcDbEntity
  8
1
370
    30
  6
Continuous
 62
     7
100
AcDbLine
 10
40.197985
 20
139.674418
 30
0.0
 11
40.197985
 21
120.174418
 31
0.0
  0
LINE
  5
375
100
AcDbEntity
  8
1
370
    30
  6
Continuous
 62
     7
100
AcDbLine
 10
44.697985
 20
130.674418
 30
0.0
 11
44.697985
 21
139.674418
 31
0.0
  0
LINE
  5
376
100
AcDbEntity
  8
1
370
    30
  6
Continuous
 62
     7
100
AcDbLine
 10
44.697985
 20
130.674418
 30
0.0
 11
57.697985
 21
130.674418
 31
0.0
  0
LINE
  5
377
100
AcDbEntity
  8
1
370
    30
  6
Continuous
 62
     7
100
AcDbLine
 10
57.697985
 20
128.674418
 30
0.0
 11
57.697985
 21
130.674418
 31
0.0
  0
LINE
  5
378
100
AcDbEntity
  8
1
370
    30
  6
Continuous
 62
     7
100
AcDbLine
 10
57.697985
 20
150.674418
 30
0.0
 11
55.197985
 21
150.674418
 31
0.0
  0
LINE
  5
379
100
AcDbEntity
  8
1
370
    30
  6
Continuous
 62
     7
100
AcDbLine
 10
55.197985
 20
150.674418
 30
0.0
 11
54.844431
 21
150.320865
 31
0.0
  0
LINE
  5
37A
100
AcDbEntity
  8
1
370
    30
  6
Continuous
 62
     7
100
AcDbLine
 10
54.844431
 20
150.320865
 30
0.0
 11
54.344431
 21
150.820865
 31
0.0
  0
LINE
  5
37B
100
AcDbEntity
  8
1
370
    30
  6
Continuous
 62
     7
100
AcDbLine
 10
54.697985
 20
151.174418
 30
0.0
 11
54.344431
 21
150.820865
 31
0.0
  0
LINE
  5
37C
100
AcDbEntity
  8
1
370
    30
  6
Continuous
 62
     7
100
AcDbLine
 10
54.697985
 20
155.674418
 30
0.0
 11
54.697985
 21
151.174418
 31
0.0
  0
LINE
  5
37D
100
AcDbEntity
  8
1
370
    30
  6
Continuous
 62
     7
100
AcDbLine
 10
40.197985
 20
159.174418
 30
0.0
 11
39.697985
 21
159.674418
 31
0.0
  0
LINE
  5
37E
100
AcDbEntity
  8
1
370
    30
  6
Continuous
 62
     7
100
AcDbLine
 10
40.197985
 20
139.674418
 30
0.0
 11
40.197985
 21
159.174418
 31
0.0
  0
LINE
  5
37F
100
AcDbEntity
  8
1
370
    30
  6
Continuous
 62
     7
100
AcDbLine
 10
44.697985
 20
148.674418
 30
0.0
 11
44.697985
 21
139.674418
 31
0.0
  0
LINE
  5
380
100
AcDbEntity
  8
1
370
    30
  6
Continuous
 62
     7
100
AcDbLine
 10
44.697985
 20
148.674418
 30
0.0
 11
57.697985
 21
148.674418
 31
0.0
  0
LINE
  5
381
100
AcDbEntity
  8
1
370
    30
  6
Continuous
 62
     7
100
AcDbLine
 10
57.697985
 20
150.674418
 30
0.0
 11
57.697985
 21
148.674418
 31
0.0
  0
LINE
  5
382
100
AcDbEntity
  8
1
370
    30
  6
Continuous
 62
     7
100
AcDbLine
 10
60.697985
 20
121.674418
 30
0.0
 11
60.697985
 21
117.574418
 31
0.0
  0
LINE
  5
383
100
AcDbEntity
  8
1
370
    30
  6
Continuous
 62
     7
100
AcDbLine
 10
54.697985
 20
116.574418
 30
0.0
 11
54.697985
 21
109.674418
 31
0.0
  0
LINE
  5
384
100
AcDbEntity
  8
1
370
    30
  6
Continuous
 62
     7
100
AcDbLine
 10
60.405091
 20
115.867312
 30
0.0
 11
61.405091
 21
116.867312
 31
0.0
  0
LINE
  5
385
100
AcDbEntity
  8
1
370
    30
  6
Continuous
 62
     7
100
AcDbLine
 10
59.697985
 20
116.574418
 30
0.0
 11
60.405091
 21
115.867312
 31
0.0
  0
LINE
  5
386
100
AcDbEntity
  8
1
370
    30
  6
Continuous
 62
     7
100
AcDbLine
 10
54.697985
 20
116.574418
 30
0.0
 11
59.697985
 21
116.574418
 31
0.0
  0
LINE
  5
387
100
AcDbEntity
  8
1
370
    30
  6
Continuous
 62
     7
100
AcDbLine
 10
60.697985
 20
117.574418
 30
0.0
 11
61.405091
 21
116.867312
 31
0.0
  0
LINE
  5
388
100
AcDbEntity
  8
1
370
    30
  6
Continuous
 62
     7
100
AcDbLine
 10
69.697985
 20
168.674418
 30
0.0
 11
68.697985
 21
169.674418
 31
0.0
  0
LINE
  5
389
100
AcDbEntity
  8
1
370
    30
  6
Continuous
 62
     7
100
AcDbLine
 10
69.697985
 20
110.674418
 30
0.0
 11
68.697985
 21
109.674418
 31
0.0
  0
LINE
  5
38A
100
AcDbEntity
  8
1
370
    30
  6
Continuous
 62
     7
100
AcDbLine
 10
54.697985
 20
169.674418
 30
0.0
 11
54.697985
 21
162.674418
 31
0.0
  0
LINE
  5
38B
100
AcDbEntity
  8
1
370
    30
  6
Continuous
 62
     7
100
AcDbLine
 10
54.697985
 20
169.674418
 30
0.0
 11
68.697985
 21
169.674418
 31
0.0
  0
LINE
  5
38C
100
AcDbEntity
  8
1
370
    30
  6
Continuous
 62
     7
100
AcDbLine
 10
54.697985
 20
109.674418
 30
0.0
 11
68.697985
 21
109.674418
 31
0.0
  0
LINE
  5
38D
100
AcDbEntity
  8
1
370
    30
  6
Continuous
 62
     7
100
AcDbLine
 10
69.697985
 20
168.674418
 30
0.0
 11
69.697985
 21
110.674418
 31
0.0
  0
LINE
  5
38E
100
AcDbEntity
  8
1
370
    30
  6
Continuous
 62
     7
100
AcDbLine
 10
60.697985
 20
157.674418
 30
0.0
 11
60.697985
 21
161.674418
 31
0.0
  0
LINE
  5
38F
100
AcDbEntity
  8
1
370
    30
  6
Continuous
 62
     7
100
AcDbLine
 10
54.697985
 20
162.674418
 30
0.0
 11
59.697985
 21
162.674418
 31
0.0
  0
LINE
  5
390
100
AcDbEntity
  8
1
370
    30
  6
Continuous
 62
     7
100
AcDbLine
 10
59.697985
 20
162.674418
 30
0.0
 11
60.405092
 21
163.381525
 31
0.0
  0
LINE
  5
391
100
AcDbEntity
  8
1
370
    30
  6
Continuous
 62
     7
100
AcDbLine
 10
60.697985
 20
161.674418
 30
0.0
 11
61.405092
 21
162.381525
 31
0.0
  0
LINE
  5
392
100
AcDbEntity
  8
1
370
    30
  6
Continuous
 62
     7
100
AcDbLine
 10
60.405092
 20
163.381525
 30
0.0
 11
61.405092
 21
162.381525
 31
0.0
  0
LINE
  5
393
100
AcDbEntity
  8
1
370
    30
  6
Continuous
 62
     7
100
AcDbLine
 10
60.697985
 20
157.674418
 30
0.0
 11
61.697985
 21
157.674418
 31
0.0
  0
LINE
  5
394
100
AcDbEntity
  8
1
370
    30
  6
Continuous
 62
     7
100
AcDbLine
 10
61.697985
 20
157.674418
 30
0.0
 11
61.697985
 21
121.674418
 31
0.0
  0
LINE
  5
395
100
AcDbEntity
  8
1
370
    30
  6
Continuous
 62
     7
100
AcDbLine
 10
60.697985
 20
121.674418
 30
0.0
 11
61.697985
 21
121.674418
 31
0.0
  0
LINE
  5
396
100
AcDbEntity
  8
1
370
     9
  6
CENTER
 62
     7
100
AcDbLine
 10
54.697985
 20
114.674418
 30
0.0
 11
37.946161
 21
114.674418
 31
0.0
  0
LINE
  5
397
100
AcDbEntity
  8
1
370
     9
  6
DOT
 62
     7
100
AcDbLine
 10
39.697985
 20
116.924418
 30
0.0
 11
49.197985
 21
116.924418
 31
0.0
  0
LINE
  5
398
100
AcDbEntity
  8
1
370
     9
  6
DOT
 62
     7
100
AcDbLine
 10
49.197985
 20
112.424418
 30
0.0
 11
39.697985
 21
112.424418
 31
0.0
  0
LINE
  5
399
100
AcDbEntity
  8
1
370
     9
  6
DOT
 62
     7
100
AcDbLine
 10
54.197985
 20
110.674418
 30
0.0
 11
49.197985
 21
110.674418
 31
0.0
  0
LINE
  5
39A
100
AcDbEntity
  8
1
370
     9
  6
DOT
 62
     7
100
AcDbLine
 10
54.197985
 20
118.674418
 30
0.0
 11
49.197985
 21
118.674418
 31
0.0
  0
LINE
  5
39B
100
AcDbEntity
  8
1
370
     9
  6
DOT
 62
     7
100
AcDbLine
 10
49.197985
 20
110.674418
 30
0.0
 11
49.197985
 21
118.674418
 31
0.0
  0
LINE
  5
39C
100
AcDbEntity
  8
1
370
     9
  6
DOT
 62
     7
100
AcDbLine
 10
49.197985
 20
162.424418
 30
0.0
 11
39.697985
 21
162.424418
 31
0.0
  0
LINE
  5
39D
100
AcDbEntity
  8
1
370
     9
  6
DOT
 62
     7
100
AcDbLine
 10
39.697985
 20
166.924418
 30
0.0
 11
49.197985
 21
166.924418
 31
0.0
  0
LINE
  5
39E
100
AcDbEntity
  8
1
370
     9
  6
CENTER
 62
     7
100
AcDbLine
 10
54.697985
 20
164.674418
 30
0.0
 11
37.884199
 21
164.674418
 31
0.0
  0
LINE
  5
39F
100
AcDbEntity
  8
1
370
     9
  6
DOT
 62
     7
100
AcDbLine
 10
54.197985
 20
168.674418
 30
0.0
 11
49.197985
 21
168.674418
 31
0.0
  0
LINE
  5
3A0
100
AcDbEntity
  8
1
370
     9
  6
DOT
 62
     7
100
AcDbLine
 10
49.197985
 20
160.674418
 30
0.0
 11
49.197985
 21
168.674418
 31
0.0
  0
LINE
  5
3A1
100
AcDbEntity
  8
1
370
     9
  6
DOT
 62
     7
100
AcDbLine
 10
54.197985
 20
160.674418
 30
0.0
 11
49.197985
 21
160.674418
 31
0.0
  0
CIRCLE
  5
3A2
100
AcDbEntity
  8
1
370
    30
  6
Continuous
 62
     7
100
AcDbCircle
 10
57.697985
 20
159.824418
 30
0.0
 40
2.5
  0
CIRCLE
  5
3A3
100
AcDbEntity
  8
1
370
    30
  6
Continuous
 62
     7
100
AcDbCircle
 10
57.697985
 20
153.524418
 30
0.0
 40
2.5
  0
CIRCLE
  5
3A4
100
AcDbEntity
  8
1
370
    30
  6
Continuous
 62
     7
100
AcDbCircle
 10
57.697985
 20
153.524418
 30
0.0
 40
2.1
  0
CIRCLE
  5
3A5
100
AcDbEntity
  8
1
370
    30
  6
Continuous
 62
     7
100
AcDbCircle
 10
57.697985
 20
159.824418
 30
0.0
 40
2.1
  0
LINE
  5
3A6
100
AcDbEntity
  8
1
370
    30
  6
Continuous
 62
     7
100
AcDbLine
 10
57.937191
 20
159.259943
 30
0.0
 11
58.037396
 21
159.485007
 31
0.0
  0
LINE
  5
3A7
100
AcDbEntity
  8
1
370
    30
  6
Continuous
 62
     7
100
AcDbLine
 10
58.037396
 20
159.485007
 30
0.0
 11
58.26246
 21
159.585212
 31
0.0
  0
LINE
  5
3A8
100
AcDbEntity
  8
1
370
    30
  6
Continuous
 62
     7
100
AcDbLine
 10
57.927843
 20
158.724418
 30
0.0
 11
57.937191
 21
159.259943
 31
0.0
  0
LINE
  5
3A9
100
AcDbEntity
  8
1
370
    30
  6
Continuous
 62
     7
100
AcDbLine
 10
58.26246
 20
159.585212
 30
0.0
 11
58.797985
 21
159.59456
 31
0.0
  0
LINE
  5
3AA
100
AcDbEntity
  8
1
370
    30
  6
Continuous
 62
     7
100
AcDbLine
 10
57.358573
 20
159.485007
 30
0.0
 11
57.458778
 21
159.259943
 31
0.0
  0
LINE
  5
3AB
100
AcDbEntity
  8
1
370
    30
  6
Continuous
 62
     7
100
AcDbLine
 10
57.133509
 20
159.585212
 30
0.0
 11
57.358573
 21
159.485007
 31
0.0
  0
LINE
  5
3AC
100
AcDbEntity
  8
1
370
    30
  6
Continuous
 62
     7
100
AcDbLine
 10
57.458778
 20
159.259943
 30
0.0
 11
57.468126
 21
158.724418
 31
0.0
  0
LINE
  5
3AD
100
AcDbEntity
  8
1
370
    30
  6
Continuous
 62
     7
100
AcDbLine
 10
56.597985
 20
159.59456
 30
0.0
 11
57.133509
 21
159.585212
 31
0.0
  0
LINE
  5
3AE
100
AcDbEntity
  8
1
370
    30
  6
Continuous
 62
     7
100
AcDbLine
 10
58.037396
 20
160.16383
 30
0.0
 11
57.937191
 21
160.388894
 31
0.0
  0
LINE
  5
3AF
100
AcDbEntity
  8
1
370
    30
  6
Continuous
 62
     7
100
AcDbLine
 10
58.26246
 20
160.063625
 30
0.0
 11
58.037396
 21
160.16383
 31
0.0
  0
LINE
  5
3B0
100
AcDbEntity
  8
1
370
    30
  6
Continuous
 62
     7
100
AcDbLine
 10
57.937191
 20
160.388894
 30
0.0
 11
57.927843
 21
160.924418
 31
0.0
  0
LINE
  5
3B1
100
AcDbEntity
  8
1
370
    30
  6
Continuous
 62
     7
100
AcDbLine
 10
58.797985
 20
160.054277
 30
0.0
 11
58.26246
 21
160.063625
 31
0.0
  0
LINE
  5
3B2
100
AcDbEntity
  8
1
370
    30
  6
Continuous
 62
     7
100
AcDbLine
 10
57.458778
 20
160.388894
 30
0.0
 11
57.358573
 21
160.16383
 31
0.0
  0
LINE
  5
3B3
100
AcDbEntity
  8
1
370
    30
  6
Continuous
 62
     7
100
AcDbLine
 10
57.358573
 20
160.16383
 30
0.0
 11
57.133509
 21
160.063625
 31
0.0
  0
LINE
  5
3B4
100
AcDbEntity
  8
1
370
    30
  6
Continuous
 62
     7
100
AcDbLine
 10
57.468126
 20
160.924418
 30
0.0
 11
57.458778
 21
160.388894
 31
0.0
  0
LINE
  5
3B5
100
AcDbEntity
  8
1
370
    30
  6
Continuous
 62
     7
100
AcDbLine
 10
57.133509
 20
160.063625
 30
0.0
 11
56.597985
 21
160.054277
 31
0.0
  0
LINE
  5
3B6
100
AcDbEntity
  8
1
370
    30
  6
Continuous
 62
     7
100
AcDbLine
 10
57.468126
 20
158.724418
 30
0.0
 11
57.927843
 21
158.724418
 31
0.0
  0
LINE
  5
3B7
100
AcDbEntity
  8
1
370
    30
  6
Continuous
 62
     7
100
AcDbLine
 10
57.468126
 20
160.924418
 30
0.0
 11
57.927843
 21
160.924418
 31
0.0
  0
LINE
  5
3B8
100
AcDbEntity
  8
1
370
    30
  6
Continuous
 62
     7
100
AcDbLine
 10
58.797985
 20
160.054277
 30
0.0
 11
58.797985
 21
159.59456
 31
0.0
  0
LINE
  5
3B9
100
AcDbEntity
  8
1
370
    30
  6
Continuous
 62
     7
100
AcDbLine
 10
56.597985
 20
160.054277
 30
0.0
 11
56.597985
 21
159.59456
 31
0.0
  0
LINE
  5
3BA
100
AcDbEntity
  8
1
370
    30
  6
Continuous
 62
     7
100
AcDbLine
 10
57.025826
 20
157.416473
 30
0.0
 11
56.683771
 21
157.074418
 31
0.0
  0
LINE
  5
3BB
100
AcDbEntity
  8
1
370
    30
  6
Continuous
 62
     7
100
AcDbLine
 10
57.454749
 20
157.336279
 30
0.0
 11
56.53833
 21
156.41986
 31
0.0
  0
LINE
  5
3BC
100
AcDbEntity
  8
1
370
    30
  6
Continuous
 62
     7
100
AcDbLine
 10
57.941221
 20
156.012558
 30
0.0
 11
58.85764
 21
156.928977
 31
0.0
  0
LINE
  5
3BD
100
AcDbEntity
  8
1
370
    30
  6
Continuous
 62
     7
100
AcDbLine
 10
58.342369
 20
155.939945
 30
0.0
 11
58.847033
 21
156.444609
 31
0.0
  0
LINE
  5
3BE
100
AcDbEntity
  8
1
370
    30
  6
Continuous
 62
     7
100
AcDbLine
 10
58.370144
 20
155.932364
 30
0.0
 11
58.712198
 21
156.274418
 31
0.0
  0
LINE
  5
3BF
100
AcDbEntity
  8
1
370
    30
  6
Continuous
 62
     7
100
AcDbLine
 10
58.712198
 20
156.274418
 30
0.0
 11
60.297985
 21
156.274418
 31
0.0
  0
LINE
  5
3C0
100
AcDbEntity
  8
1
370
    30
  6
Continuous
 62
     7
100
AcDbLine
 10
56.683771
 20
156.274418
 30
0.0
 11
55.097985
 21
156.274418
 31
0.0
  0
LINE
  5
3C1
100
AcDbEntity
  8
1
370
    30
  6
Continuous
 62
     7
100
AcDbLine
 10
56.683771
 20
157.074418
 30
0.0
 11
55.097985
 21
157.074418
 31
0.0
  0
LINE
  5
3C2
100
AcDbEntity
  8
1
370
    30
  6
Continuous
 62
     7
100
AcDbLine
 10
58.712198
 20
157.074418
 30
0.0
 11
60.297985
 21
157.074418
 31
0.0
  0
LINE
  5
3C3
100
AcDbEntity
  8
1
370
    30
  6
Continuous
 62
     7
100
AcDbLine
 10
60.697985
 20
162.274418
 30
0.0
 11
60.697985
 21
157.474418
 31
0.0
  0
LINE
  5
3C4
100
AcDbEntity
  8
1
370
    30
  6
Continuous
 62
     7
100
AcDbLine
 10
55.097985
 20
162.674418
 30
0.0
 11
60.297985
 21
162.674418
 31
0.0
  0
LINE
  5
3C5
100
AcDbEntity
  8
1
370
    30
  6
Continuous
 62
     7
100
AcDbLine
 10
54.697985
 20
157.474418
 30
0.0
 11
54.697985
 21
162.274418
 31
0.0
  0
LINE
  5
3C6
100
AcDbEntity
  8
1
370
    30
  6
Continuous
 62
     7
100
AcDbLine
 10
60.697985
 20
155.874418
 30
0.0
 11
60.697985
 21
151.074418
 31
0.0
  0
LINE
  5
3C7
100
AcDbEntity
  8
1
370
    30
  6
Continuous
 62
     7
100
AcDbLine
 10
55.097985
 20
150.674418
 30
0.0
 11
60.297985
 21
150.674418
 31
0.0
  0
LINE
  5
3C8
100
AcDbEntity
  8
1
370
    30
  6
Continuous
 62
     7
100
AcDbLine
 10
54.697985
 20
151.074418
 30
0.0
 11
54.697985
 21
155.874418
 31
0.0
  0
LINE
  5
3C9
100
AcDbEntity
  8
1
370
    30
  6
Continuous
 62
     7
100
AcDbLine
 10
54.697985
 20
151.074418
 30
0.0
 11
55.097985
 21
150.674418
 31
0.0
  0
LINE
  5
3CA
100
AcDbEntity
  8
1
370
    30
  6
Continuous
 62
     7
100
AcDbLine
 10
54.697985
 20
155.874418
 30
0.0
 11
55.097985
 21
156.274418
 31
0.0
  0
LINE
  5
3CB
100
AcDbEntity
  8
1
370
    30
  6
Continuous
 62
     7
100
AcDbLine
 10
54.697985
 20
157.474418
 30
0.0
 11
55.097985
 21
157.074418
 31
0.0
  0
LINE
  5
3CC
100
AcDbEntity
  8
1
370
    30
  6
Continuous
 62
     7
100
AcDbLine
 10
54.697985
 20
162.274418
 30
0.0
 11
55.097985
 21
162.674418
 31
0.0
  0
LINE
  5
3CD
100
AcDbEntity
  8
1
370
    30
  6
Continuous
 62
     7
100
AcDbLine
 10
60.297985
 20
162.674418
 30
0.0
 11
60.697985
 21
162.274418
 31
0.0
  0
LINE
  5
3CE
100
AcDbEntity
  8
1
370
    30
  6
Continuous
 62
     7
100
AcDbLine
 10
60.697985
 20
157.474418
 30
0.0
 11
60.297985
 21
157.074418
 31
0.0
  0
LINE
  5
3CF
100
AcDbEntity
  8
1
370
    30
  6
Continuous
 62
     7
100
AcDbLine
 10
60.697985
 20
155.874418
 30
0.0
 11
60.297985
 21
156.274418
 31
0.0
  0
LINE
  5
3D0
100
AcDbEntity
  8
1
370
    30
  6
Continuous
 62
     7
100
AcDbLine
 10
60.297985
 20
150.674418
 30
0.0
 11
60.697985
 21
151.074418
 31
0.0
  0
LINE
  5
3D1
100
AcDbEntity
  8
1
370
    30
  6
Continuous
 62
     7
100
AcDbLine
 10
58.712198
 20
157.074418
 30
0.0
 11
58.370144
 21
157.416473
 31
0.0
  0
LINE
  5
3D2
100
AcDbEntity
  8
1
370
    30
  6
Continuous
 62
     7
100
AcDbLine
 10
58.847033
 20
156.444609
 30
0.0
 11
58.603081
 21
156.674418
 31
0.0
  0
LINE
  5
3D3
100
AcDbEntity
  8
1
370
    30
  6
Continuous
 62
     7
100
AcDbLine
 10
56.785817
 20
156.667347
 30
0.0
 11
56.548936
 21
156.904228
 31
0.0
  0
LINE
  5
3D4
100
AcDbEntity
  8
1
370
    30
  6
Continuous
 62
     7
100
AcDbLine
 10
56.548936
 20
156.904228
 30
0.0
 11
57.0536
 21
157.408892
 31
0.0
  0
LINE
  5
3D5
100
AcDbEntity
  8
1
370
    30
  6
Continuous
 62
     7
100
AcDbLine
 10
56.53833
 20
156.41986
 30
0.0
 11
57.025826
 21
155.932364
 31
0.0
  0
LINE
  5
3D6
100
AcDbEntity
  8
1
370
    30
  6
Continuous
 62
     7
100
AcDbLine
 10
58.85764
 20
156.928977
 30
0.0
 11
58.370144
 21
157.416473
 31
0.0
  0
LINE
  5
3D7
100
AcDbEntity
  8
1
370
    30
  6
Continuous
 62
     7
100
AcDbLine
 10
57.937191
 20
152.959943
 30
0.0
 11
58.037396
 21
153.185007
 31
0.0
  0
LINE
  5
3D8
100
AcDbEntity
  8
1
370
    30
  6
Continuous
 62
     7
100
AcDbLine
 10
58.037396
 20
153.185007
 30
0.0
 11
58.26246
 21
153.285212
 31
0.0
  0
LINE
  5
3D9
100
AcDbEntity
  8
1
370
    30
  6
Continuous
 62
     7
100
AcDbLine
 10
57.927843
 20
152.424418
 30
0.0
 11
57.937191
 21
152.959943
 31
0.0
  0
LINE
  5
3DA
100
AcDbEntity
  8
1
370
    30
  6
Continuous
 62
     7
100
AcDbLine
 10
58.26246
 20
153.285212
 30
0.0
 11
58.797985
 21
153.29456
 31
0.0
  0
LINE
  5
3DB
100
AcDbEntity
  8
1
370
    30
  6
Continuous
 62
     7
100
AcDbLine
 10
57.358573
 20
153.185007
 30
0.0
 11
57.458778
 21
152.959943
 31
0.0
  0
LINE
  5
3DC
100
AcDbEntity
  8
1
370
    30
  6
Continuous
 62
     7
100
AcDbLine
 10
57.133509
 20
153.285212
 30
0.0
 11
57.358573
 21
153.185007
 31
0.0
  0
LINE
  5
3DD
100
AcDbEntity
  8
1
370
    30
  6
Continuous
 62
     7
100
AcDbLine
 10
57.458778
 20
152.959943
 30
0.0
 11
57.468126
 21
152.424418
 31
0.0
  0
LINE
  5
3DE
100
AcDbEntity
  8
1
370
    30
  6
Continuous
 62
     7
100
AcDbLine
 10
56.597985
 20
153.29456
 30
0.0
 11
57.133509
 21
153.285212
 31
0.0
  0
LINE
  5
3DF
100
AcDbEntity
  8
1
370
    30
  6
Continuous
 62
     7
100
AcDbLine
 10
58.037396
 20
153.86383
 30
0.0
 11
57.937191
 21
154.088894
 31
0.0
  0
LINE
  5
3E0
100
AcDbEntity
  8
1
370
    30
  6
Continuous
 62
     7
100
AcDbLine
 10
58.26246
 20
153.763625
 30
0.0
 11
58.037396
 21
153.86383
 31
0.0
  0
LINE
  5
3E1
100
AcDbEntity
  8
1
370
    30
  6
Continuous
 62
     7
100
AcDbLine
 10
57.937191
 20
154.088894
 30
0.0
 11
57.927843
 21
154.624418
 31
0.0
  0
LINE
  5
3E2
100
AcDbEntity
  8
1
370
    30
  6
Continuous
 62
     7
100
AcDbLine
 10
58.797985
 20
153.754277
 30
0.0
 11
58.26246
 21
153.763625
 31
0.0
  0
LINE
  5
3E3
100
AcDbEntity
  8
1
370
    30
  6
Continuous
 62
     7
100
AcDbLine
 10
57.458778
 20
154.088894
 30
0.0
 11
57.358573
 21
153.86383
 31
0.0
  0
LINE
  5
3E4
100
AcDbEntity
  8
1
370
    30
  6
Continuous
 62
     7
100
AcDbLine
 10
57.358573
 20
153.86383
 30
0.0
 11
57.133509
 21
153.763625
 31
0.0
  0
LINE
  5
3E5
100
AcDbEntity
  8
1
370
    30
  6
Continuous
 62
     7
100
AcDbLine
 10
57.468126
 20
154.624418
 30
0.0
 11
57.458778
 21
154.088894
 31
0.0
  0
LINE
  5
3E6
100
AcDbEntity
  8
1
370
    30
  6
Continuous
 62
     7
100
AcDbLine
 10
57.133509
 20
153.763625
 30
0.0
 11
56.597985
 21
153.754277
 31
0.0
  0
LINE
  5
3E7
100
AcDbEntity
  8
1
370
    30
  6
Continuous
 62
     7
100
AcDbLine
 10
57.468126
 20
152.424418
 30
0.0
 11
57.927843
 21
152.424418
 31
0.0
  0
LINE
  5
3E8
100
AcDbEntity
  8
1
370
    30
  6
Continuous
 62
     7
100
AcDbLine
 10
57.468126
 20
154.624418
 30
0.0
 11
57.927843
 21
154.624418
 31
0.0
  0
LINE
  5
3E9
100
AcDbEntity
  8
1
370
    30
  6
Continuous
 62
     7
100
AcDbLine
 10
58.797985
 20
153.754277
 30
0.0
 11
58.797985
 21
153.29456
 31
0.0
  0
LINE
  5
3EA
100
AcDbEntity
  8
1
370
    30
  6
Continuous
 62
     7
100
AcDbLine
 10
56.597985
 20
153.754277
 30
0.0
 11
56.597985
 21
153.29456
 31
0.0
  0
LINE
  5
3EB
100
AcDbEntity
  8
1
370
     9
  6
CENTER
 62
     7
100
AcDbLine
 10
53.723456
 20
156.674418
 30
0.0
 11
64.115564
 21
156.674418
 31
0.0
  0
CIRCLE
  5
3EC
100
AcDbEntity
  8
1
370
    30
  6
Continuous
 62
     7
100
AcDbCircle
 10
57.697985
 20
119.524418
 30
0.0
 40
2.5
  0
CIRCLE
  5
3ED
100
AcDbEntity
  8
1
370
    30
  6
Continuous
 62
     7
100
AcDbCircle
 10
57.697985
 20
125.824418
 30
0.0
 40
2.5
  0
CIRCLE
  5
3EE
100
AcDbEntity
  8
1
370
    30
  6
Continuous
 62
     7
100
AcDbCircle
 10
57.697985
 20
125.824418
 30
0.0
 40
2.1
  0
CIRCLE
  5
3EF
100
AcDbEntity
  8
1
370
    30
  6
Continuous
 62
     7
100
AcDbCircle
 10
57.697985
 20
119.524418
 30
0.0
 40
2.1
  0
LINE
  5
3F0
100
AcDbEntity
  8
1
370
    30
  6
Continuous
 62
     7
100
AcDbLine
 10
57.937191
 20
120.088894
 30
0.0
 11
58.037396
 21
119.86383
 31
0.0
  0
LINE
  5
3F1
100
AcDbEntity
  8
1
370
    30
  6
Continuous
 62
     7
100
AcDbLine
 10
58.037396
 20
119.86383
 30
0.0
 11
58.26246
 21
119.763625
 31
0.0
  0
LINE
  5
3F2
100
AcDbEntity
  8
1
370
    30
  6
Continuous
 62
     7
100
AcDbLine
 10
57.927843
 20
120.624418
 30
0.0
 11
57.937191
 21
120.088894
 31
0.0
  0
LINE
  5
3F3
100
AcDbEntity
  8
1
370
    30
  6
Continuous
 62
     7
100
AcDbLine
 10
58.26246
 20
119.763625
 30
0.0
 11
58.797985
 21
119.754277
 31
0.0
  0
LINE
  5
3F4
100
AcDbEntity
  8
1
370
    30
  6
Continuous
 62
     7
100
AcDbLine
 10
57.358573
 20
119.86383
 30
0.0
 11
57.458778
 21
120.088894
 31
0.0
  0
LINE
  5
3F5
100
AcDbEntity
  8
1
370
    30
  6
Continuous
 62
     7
100
AcDbLine
 10
57.133509
 20
119.763625
 30
0.0
 11
57.358573
 21
119.86383
 31
0.0
  0
LINE
  5
3F6
100
AcDbEntity
  8
1
370
    30
  6
Continuous
 62
     7
100
AcDbLine
 10
57.458778
 20
120.088894
 30
0.0
 11
57.468126
 21
120.624418
 31
0.0
  0
LINE
  5
3F7
100
AcDbEntity
  8
1
370
    30
  6
Continuous
 62
     7
100
AcDbLine
 10
56.597985
 20
119.754277
 30
0.0
 11
57.133509
 21
119.763625
 31
0.0
  0
LINE
  5
3F8
100
AcDbEntity
  8
1
370
    30
  6
Continuous
 62
     7
100
AcDbLine
 10
58.037396
 20
119.185007
 30
0.0
 11
57.937191
 21
118.959943
 31
0.0
  0
LINE
  5
3F9
100
AcDbEntity
  8
1
370
    30
  6
Continuous
 62
     7
100
AcDbLine
 10
58.26246
 20
119.285212
 30
0.0
 11
58.037396
 21
119.185007
 31
0.0
  0
LINE
  5
3FA
100
AcDbEntity
  8
1
370
    30
  6
Continuous
 62
     7
100
AcDbLine
 10
57.937191
 20
118.959943
 30
0.0
 11
57.927843
 21
118.424418
 31
0.0
  0
LINE
  5
3FB
100
AcDbEntity
  8
1
370
    30
  6
Continuous
 62
     7
100
AcDbLine
 10
58.797985
 20
119.29456
 30
0.0
 11
58.26246
 21
119.285212
 31
0.0
  0
LINE
  5
3FC
100
AcDbEntity
  8
1
370
    30
  6
Continuous
 62
     7
100
AcDbLine
 10
57.458778
 20
118.959943
 30
0.0
 11
57.358573
 21
119.185007
 31
0.0
  0
LINE
  5
3FD
100
AcDbEntity
  8
1
370
    30
  6
Continuous
 62
     7
100
AcDbLine
 10
57.358573
 20
119.185007
 30
0.0
 11
57.133509
 21
119.285212
 31
0.0
  0
LINE
  5
3FE
100
AcDbEntity
  8
1
370
    30
  6
Continuous
 62
     7
100
AcDbLine
 10
57.468126
 20
118.424418
 30
0.0
 11
57.458778
 21
118.959943
 31
0.0
  0
LINE
  5
3FF
100
AcDbEntity
  8
1
370
    30
  6
Continuous
 62
     7
100
AcDbLine
 10
57.133509
 20
119.285212
 30
0.0
 11
56.597985
 21
119.29456
 31
0.0
  0
LINE
  5
400
100
AcDbEntity
  8
1
370
    30
  6
Continuous
 62
     7
100
AcDbLine
 10
57.468126
 20
120.624418
 30
0.0
 11
57.927843
 21
120.624418
 31
0.0
  0
LINE
  5
401
100
AcDbEntity
  8
1
370
    30
  6
Continuous
 62
     7
100
AcDbLine
 10
57.468126
 20
118.424418
 30
0.0
 11
57.927843
 21
118.424418
 31
0.0
  0
LINE
  5
402
100
AcDbEntity
  8
1
370
    30
  6
Continuous
 62
     7
100
AcDbLine
 10
58.797985
 20
119.29456
 30
0.0
 11
58.797985
 21
119.754277
 31
0.0
  0
LINE
  5
403
100
AcDbEntity
  8
1
370
    30
  6
Continuous
 62
     7
100
AcDbLine
 10
56.597985
 20
119.29456
 30
0.0
 11
56.597985
 21
119.754277
 31
0.0
  0
LINE
  5
404
100
AcDbEntity
  8
1
370
    30
  6
Continuous
 62
     7
100
AcDbLine
 10
57.025826
 20
121.932364
 30
0.0
 11
56.683771
 21
122.274418
 31
0.0
  0
LINE
  5
405
100
AcDbEntity
  8
1
370
    30
  6
Continuous
 62
     7
100
AcDbLine
 10
57.454749
 20
122.012558
 30
0.0
 11
56.53833
 21
122.928977
 31
0.0
  0
LINE
  5
406
100
AcDbEntity
  8
1
370
    30
  6
Continuous
 62
     7
100
AcDbLine
 10
57.941221
 20
123.336279
 30
0.0
 11
58.85764
 21
122.41986
 31
0.0
  0
LINE
  5
407
100
AcDbEntity
  8
1
370
    30
  6
Continuous
 62
     7
100
AcDbLine
 10
58.342369
 20
123.408892
 30
0.0
 11
58.847033
 21
122.904228
 31
0.0
  0
LINE
  5
408
100
AcDbEntity
  8
1
370
    30
  6
Continuous
 62
     7
100
AcDbLine
 10
58.370144
 20
123.416473
 30
0.0
 11
58.712198
 21
123.074418
 31
0.0
  0
LINE
  5
409
100
AcDbEntity
  8
1
370
    30
  6
Continuous
 62
     7
100
AcDbLine
 10
58.712198
 20
123.074418
 30
0.0
 11
60.297985
 21
123.074418
 31
0.0
  0
LINE
  5
40A
100
AcDbEntity
  8
1
370
    30
  6
Continuous
 62
     7
100
AcDbLine
 10
56.683771
 20
123.074418
 30
0.0
 11
55.097985
 21
123.074418
 31
0.0
  0
LINE
  5
40B
100
AcDbEntity
  8
1
370
    30
  6
Continuous
 62
     7
100
AcDbLine
 10
56.683771
 20
122.274418
 30
0.0
 11
55.097985
 21
122.274418
 31
0.0
  0
LINE
  5
40C
100
AcDbEntity
  8
1
370
    30
  6
Continuous
 62
     7
100
AcDbLine
 10
58.712198
 20
122.274418
 30
0.0
 11
60.297985
 21
122.274418
 31
0.0
  0
LINE
  5
40D
100
AcDbEntity
  8
1
370
    30
  6
Continuous
 62
     7
100
AcDbLine
 10
60.697985
 20
117.074418
 30
0.0
 11
60.697985
 21
121.874418
 31
0.0
  0
LINE
  5
40E
100
AcDbEntity
  8
1
370
    30
  6
Continuous
 62
     7
100
AcDbLine
 10
55.097985
 20
116.674418
 30
0.0
 11
60.297985
 21
116.674418
 31
0.0
  0
LINE
  5
40F
100
AcDbEntity
  8
1
370
    30
  6
Continuous
 62
     7
100
AcDbLine
 10
54.697985
 20
121.874418
 30
0.0
 11
54.697985
 21
117.074418
 31
0.0
  0
LINE
  5
410
100
AcDbEntity
  8
1
370
    30
  6
Continuous
 62
     7
100
AcDbLine
 10
60.697985
 20
123.474418
 30
0.0
 11
60.697985
 21
128.274418
 31
0.0
  0
LINE
  5
411
100
AcDbEntity
  8
1
370
    30
  6
Continuous
 62
     7
100
AcDbLine
 10
55.097985
 20
128.674418
 30
0.0
 11
60.297985
 21
128.674418
 31
0.0
  0
LINE
  5
412
100
AcDbEntity
  8
1
370
    30
  6
Continuous
 62
     7
100
AcDbLine
 10
54.697985
 20
128.274418
 30
0.0
 11
54.697985
 21
123.474418
 31
0.0
  0
LINE
  5
413
100
AcDbEntity
  8
1
370
    30
  6
Continuous
 62
     7
100
AcDbLine
 10
54.697985
 20
128.274418
 30
0.0
 11
55.097985
 21
128.674418
 31
0.0
  0
LINE
  5
414
100
AcDbEntity
  8
1
370
    30
  6
Continuous
 62
     7
100
AcDbLine
 10
54.697985
 20
123.474418
 30
0.0
 11
55.097985
 21
123.074418
 31
0.0
  0
LINE
  5
415
100
AcDbEntity
  8
1
370
    30
  6
Continuous
 62
     7
100
AcDbLine
 10
54.697985
 20
121.874418
 30
0.0
 11
55.097985
 21
122.274418
 31
0.0
  0
LINE
  5
416
100
AcDbEntity
  8
1
370
    30
  6
Continuous
 62
     7
100
AcDbLine
 10
54.697985
 20
117.074418
 30
0.0
 11
55.097985
 21
116.674418
 31
0.0
  0
LINE
  5
417
100
AcDbEntity
  8
1
370
    30
  6
Continuous
 62
     7
100
AcDbLine
 10
60.297985
 20
116.674418
 30
0.0
 11
60.697985
 21
117.074418
 31
0.0
  0
LINE
  5
418
100
AcDbEntity
  8
1
370
    30
  6
Continuous
 62
     7
100
AcDbLine
 10
60.697985
 20
121.874418
 30
0.0
 11
60.297985
 21
122.274418
 31
0.0
  0
LINE
  5
419
100
AcDbEntity
  8
1
370
    30
  6
Continuous
 62
     7
100
AcDbLine
 10
60.697985
 20
123.474418
 30
0.0
 11
60.297985
 21
123.074418
 31
0.0
  0
LINE
  5
41A
100
AcDbEntity
  8
1
370
    30
  6
Continuous
 62
     7
100
AcDbLine
 10
60.297985
 20
128.674418
 30
0.0
 11
60.697985
 21
128.274418
 31
0.0
  0
LINE
  5
41B
100
AcDbEntity
  8
1
370
    30
  6
Continuous
 62
     7
100
AcDbLine
 10
58.712198
 20
122.274418
 30
0.0
 11
58.370144
 21
121.932364
 31
0.0
  0
LINE
  5
41C
100
AcDbEntity
  8
1
370
    30
  6
Continuous
 62
     7
100
AcDbLine
 10
58.847033
 20
122.904228
 30
0.0
 11
58.603081
 21
122.674418
 31
0.0
  0
LINE
  5
41D
100
AcDbEntity
  8
1
370
    30
  6
Continuous
 62
     7
100
AcDbLine
 10
56.785817
 20
122.68149
 30
0.0
 11
56.548936
 21
122.444609
 31
0.0
  0
LINE
  5
41E
100
AcDbEntity
  8
1
370
    30
  6
Continuous
 62
     7
100
AcDbLine
 10
56.548936
 20
122.444609
 30
0.0
 11
57.0536
 21
121.939945
 31
0.0
  0
LINE
  5
41F
100
AcDbEntity
  8
1
370
    30
  6
Continuous
 62
     7
100
AcDbLine
 10
56.53833
 20
122.928977
 30
0.0
 11
57.025826
 21
123.416473
 31
0.0
  0
LINE
  5
420
100
AcDbEntity
  8
1
370
    30
  6
Continuous
 62
     7
100
AcDbLine
 10
58.85764
 20
122.41986
 30
0.0
 11
58.370144
 21
121.932364
 31
0.0
  0
LINE
  5
421
100
AcDbEntity
  8
1
370
    30
  6
Continuous
 62
     7
100
AcDbLine
 10
57.937191
 20
126.388894
 30
0.0
 11
58.037396
 21
126.16383
 31
0.0
  0
LINE
  5
422
100
AcDbEntity
  8
1
370
    30
  6
Continuous
 62
     7
100
AcDbLine
 10
58.037396
 20
126.16383
 30
0.0
 11
58.26246
 21
126.063625
 31
0.0
  0
LINE
  5
423
100
AcDbEntity
  8
1
370
    30
  6
Continuous
 62
     7
100
AcDbLine
 10
57.927843
 20
126.924418
 30
0.0
 11
57.937191
 21
126.388894
 31
0.0
  0
LINE
  5
424
100
AcDbEntity
  8
1
370
    30
  6
Continuous
 62
     7
100
AcDbLine
 10
58.26246
 20
126.063625
 30
0.0
 11
58.797985
 21
126.054277
 31
0.0
  0
LINE
  5
425
100
AcDbEntity
  8
1
370
    30
  6
Continuous
 62
     7
100
AcDbLine
 10
57.358573
 20
126.16383
 30
0.0
 11
57.458778
 21
126.388894
 31
0.0
  0
LINE
  5
426
100
AcDbEntity
  8
1
370
    30
  6
Continuous
 62
     7
100
AcDbLine
 10
57.133509
 20
126.063625
 30
0.0
 11
57.358573
 21
126.16383
 31
0.0
  0
LINE
  5
427
100
AcDbEntity
  8
1
370
    30
  6
Continuous
 62
     7
100
AcDbLine
 10
57.458778
 20
126.388894
 30
0.0
 11
57.468126
 21
126.924418
 31
0.0
  0
LINE
  5
428
100
AcDbEntity
  8
1
370
    30
  6
Continuous
 62
     7
100
AcDbLine
 10
56.597985
 20
126.054277
 30
0.0
 11
57.133509
 21
126.063625
 31
0.0
  0
LINE
  5
429
100
AcDbEntity
  8
1
370
    30
  6
Continuous
 62
     7
100
AcDbLine
 10
58.037396
 20
125.485007
 30
0.0
 11
57.937191
 21
125.259943
 31
0.0
  0
LINE
  5
42A
100
AcDbEntity
  8
1
370
    30
  6
Continuous
 62
     7
100
AcDbLine
 10
58.26246
 20
125.585212
 30
0.0
 11
58.037396
 21
125.485007
 31
0.0
  0
LINE
  5
42B
100
AcDbEntity
  8
1
370
    30
  6
Continuous
 62
     7
100
AcDbLine
 10
57.937191
 20
125.259943
 30
0.0
 11
57.927843
 21
124.724418
 31
0.0
  0
LINE
  5
42C
100
AcDbEntity
  8
1
370
    30
  6
Continuous
 62
     7
100
AcDbLine
 10
58.797985
 20
125.59456
 30
0.0
 11
58.26246
 21
125.585212
 31
0.0
  0
LINE
  5
42D
100
AcDbEntity
  8
1
370
    30
  6
Continuous
 62
     7
100
AcDbLine
 10
57.458778
 20
125.259943
 30
0.0
 11
57.358573
 21
125.485007
 31
0.0
  0
LINE
  5
42E
100
AcDbEntity
  8
1
370
    30
  6
Continuous
 62
     7
100
AcDbLine
 10
57.358573
 20
125.485007
 30
0.0
 11
57.133509
 21
125.585212
 31
0.0
  0
LINE
  5
42F
100
AcDbEntity
  8
1
370
    30
  6
Continuous
 62
     7
100
AcDbLine
 10
57.468126
 20
124.724418
 30
0.0
 11
57.458778
 21
125.259943
 31
0.0
  0
LINE
  5
430
100
AcDbEntity
  8
1
370
    30
  6
Continuous
 62
     7
100
AcDbLine
 10
57.133509
 20
125.585212
 30
0.0
 11
56.597985
 21
125.59456
 31
0.0
  0
LINE
  5
431
100
AcDbEntity
  8
1
370
    30
  6
Continuous
 62
     7
100
AcDbLine
 10
57.468126
 20
126.924418
 30
0.0
 11
57.927843
 21
126.924418
 31
0.0
  0
LINE
  5
432
100
AcDbEntity
  8
1
370
    30
  6
Continuous
 62
     7
100
AcDbLine
 10
57.468126
 20
124.724418
 30
0.0
 11
57.927843
 21
124.724418
 31
0.0
  0
LINE
  5
433
100
AcDbEntity
  8
1
370
    30
  6
Continuous
 62
     7
100
AcDbLine
 10
58.797985
 20
125.59456
 30
0.0
 11
58.797985
 21
126.054277
 31
0.0
  0
LINE
  5
434
100
AcDbEntity
  8
1
370
    30
  6
Continuous
 62
     7
100
AcDbLine
 10
56.597985
 20
125.59456
 30
0.0
 11
56.597985
 21
126.054277
 31
0.0
  0
LINE
  5
435
100
AcDbEntity
  8
1
370
     9
  6
CENTER
 62
     7
100
AcDbLine
 10
53.723456
 20
122.674418
 30
0.0
 11
63.115564
 21
122.674418
 31
0.0
  0
LINE
  5
436
100
AcDbEntity
  8
1
370
     9
  6
CENTER
 62
     7
100
AcDbLine
 10
38.947697
 20
139.674418
 30
0.0
 11
58.384728
 21
139.674418
 31
0.0
  0
LINE
  5
437
100
AcDbEntity
  8
1
370
     9
  6
CENTER
 62
     7
100
AcDbLine
 10
54.227435
 20
139.674418
 30
0.0
 11
71.687561
 21
139.674418
 31
0.0
  0
LINE
  5
438
100
AcDbEntity
  8
1
370
    30
  6
Continuous
 62
     7
100
AcDbLine
 10
209.697985
 20
110.674418
 30
0.0
 11
149.697985
 21
110.674418
 31
0.0
  0
LINE
  5
439
100
AcDbEntity
  8
1
370
    30
  6
Continuous
 62
     7
100
AcDbLine
 10
209.697985
 20
168.674418
 30
0.0
 11
149.697985
 21
168.674418
 31
0.0
  0
LINE
  5
43A
100
AcDbEntity
  8
1
370
    30
  6
Continuous
 62
     7
100
AcDbLine
 10
208.697985
 20
109.674418
 30
0.0
 11
208.697985
 21
169.674418
 31
0.0
  0
LINE
  5
43B
100
AcDbEntity
  8
1
370
    30
  6
Continuous
 62
     7
100
AcDbLine
 10
150.697985
 20
169.674418
 30
0.0
 11
150.697985
 21
109.674418
 31
0.0
  0
LINE
  5
43C
100
AcDbEntity
  8
1
370
    30
  6
Continuous
 62
     7
100
AcDbLine
 10
249.19797
 20
137.174418
 30
0.0
 11
250.197985
 21
137.174418
 31
0.0
  0
LINE
  5
43D
100
AcDbEntity
  8
1
370
    30
  6
Continuous
 62
     7
100
AcDbLine
 10
249.19797
 20
142.174418
 30
0.0
 11
250.197985
 21
142.174418
 31
0.0
  0
LINE
  5
43E
100
AcDbEntity
  8
1
370
    30
  6
Continuous
 62
     7
100
AcDbLine
 10
232.197985
 20
142.374415
 30
0.0
 11
232.197985
 21
136.974421
 31
0.0
  0
LINE
  5
43F
100
AcDbEntity
  8
1
370
    30
  6
Continuous
 62
     7
100
AcDbLine
 10
231.897982
 20
142.674418
 30
0.0
 11
231.897982
 21
136.674418
 31
0.0
  0
LINE
  5
440
100
AcDbEntity
  8
1
370
    30
  6
Continuous
 62
     7
100
AcDbLine
 10
232.19797
 20
142.374476
 30
0.0
 11
231.897967
 21
142.674479
 31
0.0
  0
LINE
  5
441
100
AcDbEntity
  8
1
370
    30
  6
Continuous
 62
     7
100
AcDbLine
 10
232.197978
 20
136.974391
 30
0.0
 11
231.897975
 21
136.674388
 31
0.0
  0
LINE
  5
442
100
AcDbEntity
  8
1
370
    30
  6
Continuous
 62
     7
100
AcDbLine
 10
231.897982
 20
142.674418
 30
0.0
 11
230.697985
 21
142.674418
 31
0.0
  0
LINE
  5
443
100
AcDbEntity
  8
1
370
    30
  6
Continuous
 62
     7
100
AcDbLine
 10
232.197985
 20
142.206065
 30
0.0
 11
230.697985
 21
142.206065
 31
0.0
  0
LINE
  5
444
100
AcDbEntity
  8
1
370
    30
  6
Continuous
 62
     7
100
AcDbLine
 10
232.197985
 20
137.142772
 30
0.0
 11
230.697985
 21
137.142772
 31
0.0
  0
LINE
  5
445
100
AcDbEntity
  8
1
370
    30
  6
Continuous
 62
     7
100
AcDbLine
 10
231.897982
 20
136.674418
 30
0.0
 11
230.697985
 21
136.674418
 31
0.0
  0
LINE
  5
446
100
AcDbEntity
  8
1
370
    30
  6
Continuous
 62
     7
100
AcDbLine
 10
233.197985
 20
137.424418
 30
0.0
 11
232.197985
 21
137.424418
 31
0.0
  0
LINE
  5
447
100
AcDbEntity
  8
1
370
    30
  6
Continuous
 62
     7
100
AcDbLine
 10
233.197985
 20
141.924418
 30
0.0
 11
232.197985
 21
141.924418
 31
0.0
  0
LINE
  5
448
100
AcDbEntity
  8
1
370
    30
  6
Continuous
 62
     7
100
AcDbLine
 10
232.197985
 20
40.374415
 30
0.0
 11
232.197985
 21
34.974421
 31
0.0
  0
LINE
  5
449
100
AcDbEntity
  8
1
370
    30
  6
Continuous
 62
     7
100
AcDbLine
 10
231.897982
 20
40.674418
 30
0.0
 11
231.897982
 21
34.674418
 31
0.0
  0
LINE
  5
44A
100
AcDbEntity
  8
1
370
    30
  6
Continuous
 62
     7
100
AcDbLine
 10
232.19797
 20
40.374476
 30
0.0
 11
231.897967
 21
40.674479
 31
0.0
  0
LINE
  5
44B
100
AcDbEntity
  8
1
370
    30
  6
Continuous
 62
     7
100
AcDbLine
 10
232.197978
 20
34.974391
 30
0.0
 11
231.897975
 21
34.674388
 31
0.0
  0
LINE
  5
44C
100
AcDbEntity
  8
1
370
    30
  6
Continuous
 62
     7
100
AcDbLine
 10
231.897982
 20
40.674418
 30
0.0
 11
230.697985
 21
40.674418
 31
0.0
  0
LINE
  5
44D
100
AcDbEntity
  8
1
370
    30
  6
Continuous
 62
     7
100
AcDbLine
 10
232.197985
 20
40.206065
 30
0.0
 11
230.697985
 21
40.206065
 31
0.0
  0
LINE
  5
44E
100
AcDbEntity
  8
1
370
    30
  6
Continuous
 62
     7
100
AcDbLine
 10
232.197985
 20
35.142772
 30
0.0
 11
230.697985
 21
35.142772
 31
0.0
  0
LINE
  5
44F
100
AcDbEntity
  8
1
370
    30
  6
Continuous
 62
     7
100
AcDbLine
 10
231.897982
 20
34.674418
 30
0.0
 11
230.697985
 21
34.674418
 31
0.0
  0
LINE
  5
450
100
AcDbEntity
  8
1
370
    30
  6
Continuous
 62
     7
100
AcDbLine
 10
233.197985
 20
35.424418
 30
0.0
 11
232.197985
 21
35.424418
 31
0.0
  0
LINE
  5
451
100
AcDbEntity
  8
1
370
    30
  6
Continuous
 62
     7
100
AcDbLine
 10
233.197985
 20
39.924418
 30
0.0
 11
232.197985
 21
39.924418
 31
0.0
  0
LINE
  5
452
100
AcDbEntity
  8
1
370
    30
  6
Continuous
 62
     7
100
AcDbLine
 10
224.697985
 20
154.674418
 30
0.0
 11
224.697985
 21
124.674418
 31
0.0
  0
LINE
  5
453
100
AcDbEntity
  8
1
370
    30
  6
Continuous
 62
     7
100
AcDbLine
 10
210.697985
 20
124.674418
 30
0.0
 11
210.697985
 21
154.674418
 31
0.0
  0
LINE
  5
454
100
AcDbEntity
  8
1
370
    30
  6
Continuous
 62
     7
100
AcDbLine
 10
225.697985
 20
125.674418
 30
0.0
 11
209.697985
 21
125.674418
 31
0.0
  0
LINE
  5
455
100
AcDbEntity
  8
1
370
    30
  6
Continuous
 62
     7
100
AcDbLine
 10
209.697985
 20
153.674418
 30
0.0
 11
225.697985
 21
153.674418
 31
0.0
  0
LINE
  5
456
100
AcDbEntity
  8
1
370
    30
  6
Continuous
 62
     7
100
AcDbLine
 10
210.697985
 20
154.674418
 30
0.0
 11
209.697985
 21
153.674418
 31
0.0
  0
LINE
  5
457
100
AcDbEntity
  8
1
370
    30
  6
Continuous
 62
     7
100
AcDbLine
 10
224.697985
 20
154.674418
 30
0.0
 11
210.697985
 21
154.674418
 31
0.0
  0
LINE
  5
458
100
AcDbEntity
  8
1
370
    30
  6
Continuous
 62
     7
100
AcDbLine
 10
209.697985
 20
110.674418
 30
0.0
 11
209.697985
 21
168.674418
 31
0.0
  0
LINE
  5
459
100
AcDbEntity
  8
1
370
    30
  6
Continuous
 62
     7
100
AcDbLine
 10
210.697985
 20
124.674418
 30
0.0
 11
209.697985
 21
125.674418
 31
0.0
  0
LINE
  5
45A
100
AcDbEntity
  8
1
370
    30
  6
Continuous
 62
     7
100
AcDbLine
 10
224.697985
 20
124.674418
 30
0.0
 11
210.697985
 21
124.674418
 31
0.0
  0
LINE
  5
45B
100
AcDbEntity
  8
1
370
    30
  6
Continuous
 62
     7
100
AcDbLine
 10
225.697985
 20
125.674418
 30
0.0
 11
224.697985
 21
124.674418
 31
0.0
  0
LINE
  5
45C
100
AcDbEntity
  8
1
370
    30
  6
Continuous
 62
     7
100
AcDbLine
 10
225.697985
 20
153.674418
 30
0.0
 11
225.697985
 21
125.674418
 31
0.0
  0
LINE
  5
45D
100
AcDbEntity
  8
1
370
    30
  6
Continuous
 62
     7
100
AcDbLine
 10
224.697985
 20
154.674418
 30
0.0
 11
225.697985
 21
153.674418
 31
0.0
  0
LINE
  5
45E
100
AcDbEntity
  8
1
370
    30
  6
Continuous
 62
     7
100
AcDbLine
 10
224.697985
 20
46.674418
 30
0.0
 11
224.697985
 21
27.674418
 31
0.0
  0
LINE
  5
45F
100
AcDbEntity
  8
1
370
    30
  6
Continuous
 62
     7
100
AcDbLine
 10
210.697985
 20
46.674418
 30
0.0
 11
210.697985
 21
35.874418
 31
0.0
  0
LINE
  5
460
100
AcDbEntity
  8
1
370
    30
  6
Continuous
 62
     7
100
AcDbLine
 10
209.697985
 20
45.674418
 30
0.0
 11
225.697985
 21
45.674418
 31
0.0
  0
LINE
  5
461
100
AcDbEntity
  8
1
370
    30
  6
Continuous
 62
     7
100
AcDbLine
 10
150.697985
 20
52.674418
 30
0.0
 11
150.697985
 21
50.674418
 31
0.0
  0
LINE
  5
462
100
AcDbEntity
  8
1
370
    30
  6
Continuous
 62
     7
100
AcDbLine
 10
208.697985
 20
52.674418
 30
0.0
 11
208.697985
 21
50.674418
 31
0.0
  0
LINE
  5
463
100
AcDbEntity
  8
1
370
    30
  6
Continuous
 62
     7
100
AcDbLine
 10
149.697985
 20
51.674418
 30
0.0
 11
209.697985
 21
51.674418
 31
0.0
  0
LINE
  5
464
100
AcDbEntity
  8
1
370
    30
  6
Continuous
 62
     7
100
AcDbLine
 10
208.697985
 20
22.674418
 30
0.0
 11
208.697985
 21
24.674418
 31
0.0
  0
LINE
  5
465
100
AcDbEntity
  8
1
370
    30
  6
Continuous
 62
     7
100
AcDbLine
 10
150.697985
 20
22.674418
 30
0.0
 11
150.697985
 21
24.674418
 31
0.0
  0
LINE
  5
466
100
AcDbEntity
  8
1
370
    30
  6
Continuous
 62
     7
100
AcDbLine
 10
149.697985
 20
24.674418
 30
0.0
 11
209.697985
 21
24.674418
 31
0.0
  0
LINE
  5
467
100
AcDbEntity
  8
1
370
    30
  6
Continuous
 62
     7
100
AcDbLine
 10
149.697985
 20
50.674418
 30
0.0
 11
209.697985
 21
50.674418
 31
0.0
  0
LINE
  5
468
100
AcDbEntity
  8
1
370
     9
  6
Continuous
 62
     7
100
AcDbLine
 10
149.697985
 20
50.674418
 30
0.0
 11
209.697985
 21
50.674418
 31
0.0
  0
LINE
  5
469
100
AcDbEntity
  8
1
370
     9
  6
Continuous
 62
     7
100
AcDbLine
 10
149.697985
 20
24.674418
 30
0.0
 11
209.697985
 21
24.674418
 31
0.0
  0
LINE
  5
46A
100
AcDbEntity
  8
1
370
     9
  6
CENTER
 62
     7
100
AcDbLine
 10
199.697985
 20
32.524277
 30
0.0
 11
199.697985
 21
43.865803
 31
0.0
  0
LINE
  5
46B
100
AcDbEntity
  8
1
370
     9
  6
CENTER
 62
     7
100
AcDbLine
 10
159.697985
 20
32.524277
 30
0.0
 11
159.697985
 21
43.865803
 31
0.0
  0
LINE
  5
46C
100
AcDbEntity
  8
1
370
     9
  6
CENTER
 62
     7
100
AcDbLine
 10
167.197985
 20
43.500576
 30
0.0
 11
167.197985
 21
30.674418
 31
0.0
  0
LINE
  5
46D
100
AcDbEntity
  8
1
370
     9
  6
CENTER
 62
     7
100
AcDbLine
 10
192.197985
 20
43.500576
 30
0.0
 11
192.197985
 21
31.584353
 31
0.0
  0
LINE
  5
46E
100
AcDbEntity
  8
1
370
     9
  6
CENTER
 62
     7
100
AcDbLine
 10
195.512852
 20
40.174418
 30
0.0
 11
189.067258
 21
40.174418
 31
0.0
  0
LINE
  5
46F
100
AcDbEntity
  8
1
370
     9
  6
CENTER
 62
     7
100
AcDbLine
 10
170.163795
 20
40.174418
 30
0.0
 11
164.097354
 21
40.174418
 31
0.0
  0
LINE
  5
470
100
AcDbEntity
  8
1
370
     9
  6
DOT
 62
     7
100
AcDbLine
 10
194.697985
 20
42.674418
 30
0.0
 11
194.697985
 21
34.560782
 31
0.0
  0
LINE
  5
471
100
AcDbEntity
  8
1
370
     9
  6
DOT
 62
     7
100
AcDbLine
 10
189.697985
 20
42.674418
 30
0.0
 11
189.697985
 21
34.560782
 31
0.0
  0
LINE
  5
472
100
AcDbEntity
  8
1
370
     9
  6
DOT
 62
     7
100
AcDbLine
 10
182.197985
 20
44.674418
 30
0.0
 11
182.197985
 21
34.560782
 31
0.0
  0
LINE
  5
473
100
AcDbEntity
  8
1
370
     9
  6
DOT
 62
     7
100
AcDbLine
 10
177.197985
 20
34.560782
 30
0.0
 11
177.197985
 21
44.674418
 31
0.0
  0
LINE
  5
474
100
AcDbEntity
  8
1
370
     9
  6
DOT
 62
     7
100
AcDbLine
 10
169.697985
 20
42.674418
 30
0.0
 11
169.697985
 21
34.560782
 31
0.0
  0
LINE
  5
475
100
AcDbEntity
  8
1
370
     9
  6
DOT
 62
     7
100
AcDbLine
 10
164.697985
 20
42.674418
 30
0.0
 11
164.697985
 21
34.560782
 31
0.0
  0
LINE
  5
476
100
AcDbEntity
  8
1
370
     9
  6
DOT
 62
     7
100
AcDbLine
 10
194.697985
 20
42.674418
 30
0.0
 11
189.697985
 21
42.674418
 31
0.0
  0
LINE
  5
477
100
AcDbEntity
  8
1
370
     9
  6
DOT
 62
     7
100
AcDbLine
 10
169.697985
 20
42.674418
 30
0.0
 11
164.697985
 21
42.674418
 31
0.0
  0
LINE
  5
478
100
AcDbEntity
  8
1
370
     9
  6
DOT
 62
     7
100
AcDbLine
 10
182.197985
 20
44.674418
 30
0.0
 11
177.197985
 21
44.674418
 31
0.0
  0
LINE
  5
479
100
AcDbEntity
  8
1
370
     9
  6
CENTER
 62
     7
100
AcDbLine
 10
179.697985
 20
45.835782
 30
0.0
 11
179.697985
 21
31.975782
 31
0.0
  0
LINE
  5
47A
100
AcDbEntity
  8
1
370
     9
  6
CENTER
 62
     7
100
AcDbLine
 10
176.39273
 20
42.174418
 30
0.0
 11
183.000817
 21
42.174418
 31
0.0
  0
LINE
  5
47B
100
AcDbEntity
  8
1
370
     9
  6
CENTER
 62
     7
100
AcDbLine
 10
154.697985
 20
20.472976
 30
0.0
 11
154.697985
 21
26.867657
 31
0.0
  0
LINE
  5
47C
100
AcDbEntity
  8
1
370
     9
  6
CENTER
 62
     7
100
AcDbLine
 10
204.697985
 20
26.867657
 30
0.0
 11
204.697985
 21
20.472976
 31
0.0
  0
CIRCLE
  5
47D
100
AcDbEntity
  8
1
370
    30
  6
Continuous
 62
     7
100
AcDbCircle
 10
199.697986
 20
37.674418
 30
0.0
 40
2.75
  0
LINE
  5
47E
100
AcDbEntity
  8
1
370
    30
  6
Continuous
 62
     7
100
AcDbLine
 10
198.25461
 20
37.674419
 30
0.0
 11
198.976298
 21
36.424419
 31
0.0
  0
LINE
  5
47F
100
AcDbEntity
  8
1
370
    30
  6
Continuous
 62
     7
100
AcDbLine
 10
198.976298
 20
38.924419
 30
0.0
 11
198.25461
 21
37.674419
 31
0.0
  0
LINE
  5
480
100
AcDbEntity
  8
1
370
    30
  6
Continuous
 62
     7
100
AcDbLine
 10
198.976298
 20
38.924419
 30
0.0
 11
200.419672
 21
38.924419
 31
0.0
  0
LINE
  5
481
100
AcDbEntity
  8
1
370
    30
  6
Continuous
 62
     7
100
AcDbLine
 10
198.976298
 20
36.424419
 30
0.0
 11
200.419672
 21
36.424419
 31
0.0
  0
LINE
  5
482
100
AcDbEntity
  8
1
370
    30
  6
Continuous
 62
     7
100
AcDbLine
 10
201.14136
 20
37.674419
 30
0.0
 11
200.419672
 21
36.424419
 31
0.0
  0
LINE
  5
483
100
AcDbEntity
  8
1
370
    30
  6
Continuous
 62
     7
100
AcDbLine
 10
200.419672
 20
38.924419
 30
0.0
 11
201.14136
 21
37.674419
 31
0.0
  0
CIRCLE
  5
484
100
AcDbEntity
  8
1
370
    30
  6
Continuous
 62
     7
100
AcDbCircle
 10
159.697986
 20
37.674418
 30
0.0
 40
2.75
  0
LINE
  5
485
100
AcDbEntity
  8
1
370
    30
  6
Continuous
 62
     7
100
AcDbLine
 10
158.25461
 20
37.674419
 30
0.0
 11
158.976298
 21
36.424419
 31
0.0
  0
LINE
  5
486
100
AcDbEntity
  8
1
370
    30
  6
Continuous
 62
     7
100
AcDbLine
 10
158.976298
 20
38.924419
 30
0.0
 11
158.25461
 21
37.674419
 31
0.0
  0
LINE
  5
487
100
AcDbEntity
  8
1
370
    30
  6
Continuous
 62
     7
100
AcDbLine
 10
158.976298
 20
38.924419
 30
0.0
 11
160.419672
 21
38.924419
 31
0.0
  0
LINE
  5
488
100
AcDbEntity
  8
1
370
    30
  6
Continuous
 62
     7
100
AcDbLine
 10
158.976298
 20
36.424419
 30
0.0
 11
160.419672
 21
36.424419
 31
0.0
  0
LINE
  5
489
100
AcDbEntity
  8
1
370
    30
  6
Continuous
 62
     7
100
AcDbLine
 10
161.14136
 20
37.674419
 30
0.0
 11
160.419672
 21
36.424419
 31
0.0
  0
LINE
  5
48A
100
AcDbEntity
  8
1
370
    30
  6
Continuous
 62
     7
100
AcDbLine
 10
160.419672
 20
38.924419
 30
0.0
 11
161.14136
 21
37.674419
 31
0.0
  0
LINE
  5
48B
100
AcDbEntity
  8
1
370
    30
  6
Continuous
 62
     7
100
AcDbLine
 10
149.697985
 20
24.674418
 30
0.0
 11
209.697985
 21
24.674418
 31
0.0
  0
ARC
  5
48C
100
AcDbEntity
  8
1
370
    30
  6
Continuous
 62
     7
100
AcDbCircle
 10
159.697986
 20
26.674418
 30
0.0
 40
2.75
100
AcDbArc
 50
-133.341758
 51
-46.658242
  0
ARC
  5
48D
100
AcDbEntity
  8
1
370
    30
  6
Continuous
 62
     7
100
AcDbCircle
 10
199.697986
 20
26.674418
 30
0.0
 40
2.75
100
AcDbArc
 50
-133.341758
 51
-46.658242
  0
LINE
  5
48E
100
AcDbEntity
  8
1
370
    30
  6
Continuous
 62
     7
100
AcDbLine
 10
203.697985
 20
24.674418
 30
0.0
 11
203.697985
 21
23.674418
 31
0.0
  0
LINE
  5
48F
100
AcDbEntity
  8
1
370
    30
  6
Continuous
 62
     7
100
AcDbLine
 10
155.697985
 20
24.674418
 30
0.0
 11
155.697985
 21
23.674418
 31
0.0
  0
LINE
  5
490
100
AcDbEntity
  8
1
370
    30
  6
Continuous
 62
     7
100
AcDbLine
 10
155.697985
 20
23.674418
 30
0.0
 11
203.697985
 21
23.674418
 31
0.0
  0
LINE
  5
491
100
AcDbEntity
  8
1
370
    30
  6
Continuous
 62
     7
100
AcDbLine
 10
249.19797
 20
35.174418
 30
0.0
 11
250.199938
 21
35.174418
 31
0.0
  0
LINE
  5
492
100
AcDbEntity
  8
1
370
    30
  6
Continuous
 62
     7
100
AcDbLine
 10
249.19797
 20
40.174418
 30
0.0
 11
250.199938
 21
40.174418
 31
0.0
  0
LINE
  5
493
100
AcDbEntity
  8
1
370
    30
  6
Continuous
 62
     7
100
AcDbLine
 10
229.697985
 20
126.674418
 30
0.0
 11
250.197985
 21
126.674418
 31
0.0
  0
LINE
  5
494
100
AcDbEntity
  8
1
370
    30
  6
Continuous
 62
     7
100
AcDbLine
 10
229.697985
 20
152.674418
 30
0.0
 11
250.197985
 21
152.674418
 31
0.0
  0
LINE
  5
495
100
AcDbEntity
  8
1
370
    30
  6
Continuous
 62
     7
100
AcDbLine
 10
214.697985
 20
27.674418
 30
0.0
 11
255.197985
 21
27.674418
 31
0.0
  0
LINE
  5
496
100
AcDbEntity
  8
1
370
    30
  6
Continuous
 62
     7
100
AcDbLine
 10
255.197985
 20
27.674418
 30
0.0
 11
255.197985
 21
22.874418
 31
0.0
  0
LINE
  5
497
100
AcDbEntity
  8
1
370
    30
  6
Continuous
 62
     7
100
AcDbLine
 10
209.697985
 20
22.874418
 30
0.0
 11
255.197985
 21
22.874418
 31
0.0
  0
LINE
  5
498
100
AcDbEntity
  8
1
370
    30
  6
Continuous
 62
     7
100
AcDbLine
 10
261.197985
 20
127.674418
 30
0.0
 11
307.697985
 21
127.674418
 31
0.0
  0
LINE
  5
499
100
AcDbEntity
  8
1
370
    30
  6
Continuous
 62
     7
100
AcDbLine
 10
307.697985
 20
127.674418
 30
0.0
 11
307.697985
 21
151.674418
 31
0.0
  0
LINE
  5
49A
100
AcDbEntity
  8
1
370
    30
  6
Continuous
 62
     7
100
AcDbLine
 10
261.197985
 20
151.674418
 30
0.0
 11
307.697985
 21
151.674418
 31
0.0
  0
LINE
  5
49B
100
AcDbEntity
  8
1
370
    30
  6
Continuous
 62
     7
100
AcDbLine
 10
299.697985
 20
151.674418
 30
0.0
 11
299.697985
 21
127.674418
 31
0.0
  0
LINE
  5
49C
100
AcDbEntity
  8
1
370
    30
  6
Continuous
 62
     7
100
AcDbLine
 10
305.197985
 20
151.674418
 30
0.0
 11
305.197985
 21
145.274424
 31
0.0
  0
LINE
  5
49D
100
AcDbEntity
  8
1
370
    30
  6
Continuous
 62
     7
100
AcDbLine
 10
305.197985
 20
150.924418
 30
0.0
 11
306.045245
 21
150.850291
 31
0.0
  0
LINE
  5
49E
100
AcDbEntity
  8
1
370
    30
  6
Continuous
 62
     7
100
AcDbLine
 10
305.197985
 20
145.424418
 30
0.0
 11
306.045245
 21
145.498545
 31
0.0
  0
ARC
  5
49F
100
AcDbEntity
  8
1
370
    30
  6
Continuous
 62
     7
100
AcDbCircle
 10
300.197985
 20
148.174418
 30
0.0
 40
6.999984
100
AcDbArc
 50
-16.25705
 51
16.25705
  0
ARC
  5
4A0
100
AcDbEntity
  8
1
370
    30
  6
Continuous
 62
     7
100
AcDbCircle
 10
305.958086
 20
146.49473
 30
0.0
 40
1.000004
100
AcDbArc
 50
-84.999817
 51
-16.256424
  0
ARC
  5
4A1
100
AcDbEntity
  8
1
370
    30
  6
Continuous
 62
     7
100
AcDbCircle
 10
305.958086
 20
149.854105
 30
0.0
 40
0.999991
100
AcDbArc
 50
16.256424
 51
84.999809
  0
ARC
  5
4A2
100
AcDbEntity
  8
1
370
    30
  6
Continuous
 62
     7
100
AcDbCircle
 10
305.297991
 20
145.274424
 30
0.0
 40
0.100006
100
AcDbArc
 50
180.0
 51
-90.0
  0
LINE
  5
4A3
100
AcDbEntity
  8
1
370
    30
  6
Continuous
 62
     7
100
AcDbLine
 10
305.197985
 20
127.674418
 30
0.0
 11
305.197985
 21
134.074412
 31
0.0
  0
LINE
  5
4A4
100
AcDbEntity
  8
1
370
    30
  6
Continuous
 62
     7
100
AcDbLine
 10
305.197985
 20
128.424418
 30
0.0
 11
306.045245
 21
128.498545
 31
0.0
  0
LINE
  5
4A5
100
AcDbEntity
  8
1
370
    30
  6
Continuous
 62
     7
100
AcDbLine
 10
305.197985
 20
133.924418
 30
0.0
 11
306.045245
 21
133.850291
 31
0.0
  0
ARC
  5
4A6
100
AcDbEntity
  8
1
370
    30
  6
Continuous
 62
     7
100
AcDbCircle
 10
300.197985
 20
131.174418
 30
0.0
 40
6.999984
100
AcDbArc
 50
-16.25705
 51
16.25705
  0
ARC
  5
4A7
100
AcDbEntity
  8
1
370
    30
  6
Continuous
 62
     7
100
AcDbCircle
 10
305.958086
 20
132.854106
 30
0.0
 40
1.000004
100
AcDbArc
 50
16.256424
 51
84.999817
  0
ARC
  5
4A8
100
AcDbEntity
  8
1
370
    30
  6
Continuous
 62
     7
100
AcDbCircle
 10
305.958086
 20
129.494731
 30
0.0
 40
0.999991
100
AcDbArc
 50
-84.999809
 51
-16.256424
  0
ARC
  5
4A9
100
AcDbEntity
  8
1
370
    30
  6
Continuous
 62
     7
100
AcDbCircle
 10
305.297991
 20
134.074412
 30
0.0
 40
0.100006
100
AcDbArc
 50
90.0
 51
180.0
  0
LINE
  5
4AA
100
AcDbEntity
  8
1
370
    30
  6
Continuous
 62
     7
100
AcDbLine
 10
307.697985
 20
145.174418
 30
0.0
 11
305.297991
 21
145.174418
 31
0.0
  0
LINE
  5
4AB
100
AcDbEntity
  8
1
370
    30
  6
Continuous
 62
     7
100
AcDbLine
 10
307.697985
 20
134.174418
 30
0.0
 11
305.297991
 21
134.174418
 31
0.0
  0
LINE
  5
4AC
100
AcDbEntity
  8
1
370
    30
  6
Continuous
 62
     7
100
AcDbLine
 10
305.197985
 20
150.674418
 30
0.0
 11
299.697985
 21
150.674418
 31
0.0
  0
LINE
  5
4AD
100
AcDbEntity
  8
1
370
    30
  6
Continuous
 62
     7
100
AcDbLine
 10
299.697985
 20
128.674418
 30
0.0
 11
305.197985
 21
128.674418
 31
0.0
  0
LINE
  5
4AE
100
AcDbEntity
  8
1
370
    30
  6
Continuous
 62
     7
100
AcDbLine
 10
268.197985
 20
132.674418
 30
0.0
 11
299.697985
 21
132.674418
 31
0.0
  0
LINE
  5
4AF
100
AcDbEntity
  8
1
370
    30
  6
Continuous
 62
     7
100
AcDbLine
 10
299.697985
 20
146.674418
 30
0.0
 11
268.197985
 21
146.674418
 31
0.0
  0
LINE
  5
4B0
100
AcDbEntity
  8
1
370
     9
  6
CENTER
 62
     7
100
AcDbLine
 10
309.086295
 20
148.174418
 30
0.0
 11
301.80986
 21
148.174418
 31
0.0
  0
LINE
  5
4B1
100
AcDbEntity
  8
1
370
     9
  6
CENTER
 62
     7
100
AcDbLine
 10
309.086295
 20
131.174418
 30
0.0
 11
301.80986
 21
131.174418
 31
0.0
  0
LINE
  5
4B2
100
AcDbEntity
  8
1
370
    30
  6
Continuous
 62
     7
100
AcDbLine
 10
307.697985
 20
142.174418
 30
0.0
 11
317.697985
 21
142.174418
 31
0.0
  0
LINE
  5
4B3
100
AcDbEntity
  8
1
370
    30
  6
Continuous
 62
     7
100
AcDbLine
 10
317.697985
 20
142.174418
 30
0.0
 11
317.697985
 21
137.174418
 31
0.0
  0
LINE
  5
4B4
100
AcDbEntity
  8
1
370
    30
  6
Continuous
 62
     7
100
AcDbLine
 10
307.697985
 20
137.174418
 30
0.0
 11
317.697985
 21
137.174418
 31
0.0
  0
LINE
  5
4B5
100
AcDbEntity
  8
1
370
    30
  6
Continuous
 62
     7
100
AcDbLine
 10
261.197985
 20
151.674418
 30
0.0
 11
261.197985
 21
127.674418
 31
0.0
  0
LINE
  5
4B6
100
AcDbEntity
  8
1
370
    30
  6
Continuous
 62
     7
100
AcDbLine
 10
268.197985
 20
151.674418
 30
0.0
 11
268.197985
 21
127.674418
 31
0.0
  0
LINE
  5
4B7
100
AcDbEntity
  8
1
370
    30
  6
Continuous
 62
     7
100
AcDbLine
 10
268.197985
 20
150.674418
 30
0.0
 11
261.197985
 21
150.674418
 31
0.0
  0
LINE
  5
4B8
100
AcDbEntity
  8
1
370
    30
  6
Continuous
 62
     7
100
AcDbLine
 10
268.197985
 20
128.674418
 30
0.0
 11
261.197985
 21
128.674418
 31
0.0
  0
LINE
  5
4B9
100
AcDbEntity
  8
1
370
    30
  6
Continuous
 62
     7
100
AcDbLine
 10
261.197985
 20
25.674418
 30
0.0
 11
307.697985
 21
25.674418
 31
0.0
  0
LINE
  5
4BA
100
AcDbEntity
  8
1
370
    30
  6
Continuous
 62
     7
100
AcDbLine
 10
307.697985
 20
25.674418
 30
0.0
 11
307.697985
 21
49.674418
 31
0.0
  0
LINE
  5
4BB
100
AcDbEntity
  8
1
370
    30
  6
Continuous
 62
     7
100
AcDbLine
 10
261.197985
 20
49.674418
 30
0.0
 11
307.697985
 21
49.674418
 31
0.0
  0
LINE
  5
4BC
100
AcDbEntity
  8
1
370
    30
  6
Continuous
 62
     7
100
AcDbLine
 10
299.697985
 20
49.674418
 30
0.0
 11
299.697985
 21
25.674418
 31
0.0
  0
LINE
  5
4BD
100
AcDbEntity
  8
1
370
    30
  6
Continuous
 62
     7
100
AcDbLine
 10
305.197985
 20
49.674418
 30
0.0
 11
305.197985
 21
43.274424
 31
0.0
  0
LINE
  5
4BE
100
AcDbEntity
  8
1
370
    30
  6
Continuous
 62
     7
100
AcDbLine
 10
305.197985
 20
48.924418
 30
0.0
 11
306.045245
 21
48.850291
 31
0.0
  0
LINE
  5
4BF
100
AcDbEntity
  8
1
370
    30
  6
Continuous
 62
     7
100
AcDbLine
 10
305.197985
 20
43.424418
 30
0.0
 11
306.045245
 21
43.498545
 31
0.0
  0
ARC
  5
4C0
100
AcDbEntity
  8
1
370
    30
  6
Continuous
 62
     7
100
AcDbCircle
 10
300.197985
 20
46.174418
 30
0.0
 40
6.999984
100
AcDbArc
 50
-16.25705
 51
16.25705
  0
ARC
  5
4C1
100
AcDbEntity
  8
1
370
    30
  6
Continuous
 62
     7
100
AcDbCircle
 10
305.958086
 20
44.49473
 30
0.0
 40
1.000004
100
AcDbArc
 50
-84.999817
 51
-16.256424
  0
ARC
  5
4C2
100
AcDbEntity
  8
1
370
    30
  6
Continuous
 62
     7
100
AcDbCircle
 10
305.958086
 20
47.854105
 30
0.0
 40
0.999991
100
AcDbArc
 50
16.256424
 51
84.999809
  0
ARC
  5
4C3
100
AcDbEntity
  8
1
370
    30
  6
Continuous
 62
     7
100
AcDbCircle
 10
305.297991
 20
43.274424
 30
0.0
 40
0.100006
100
AcDbArc
 50
180.0
 51
-90.0
  0
LINE
  5
4C4
100
AcDbEntity
  8
1
370
    30
  6
Continuous
 62
     7
100
AcDbLine
 10
305.197985
 20
25.674418
 30
0.0
 11
305.197985
 21
32.074412
 31
0.0
  0
LINE
  5
4C5
100
AcDbEntity
  8
1
370
    30
  6
Continuous
 62
     7
100
AcDbLine
 10
305.197985
 20
26.424418
 30
0.0
 11
306.045245
 21
26.498545
 31
0.0
  0
LINE
  5
4C6
100
AcDbEntity
  8
1
370
    30
  6
Continuous
 62
     7
100
AcDbLine
 10
305.197985
 20
31.924418
 30
0.0
 11
306.045245
 21
31.850291
 31
0.0
  0
ARC
  5
4C7
100
AcDbEntity
  8
1
370
    30
  6
Continuous
 62
     7
100
AcDbCircle
 10
300.197985
 20
29.174418
 30
0.0
 40
6.999984
100
AcDbArc
 50
-16.25705
 51
16.25705
  0
ARC
  5
4C8
100
AcDbEntity
  8
1
370
    30
  6
Continuous
 62
     7
100
AcDbCircle
 10
305.958086
 20
30.854106
 30
0.0
 40
1.000004
100
AcDbArc
 50
16.256424
 51
84.999817
  0
ARC
  5
4C9
100
AcDbEntity
  8
1
370
    30
  6
Continuous
 62
     7
100
AcDbCircle
 10
305.958086
 20
27.494731
 30
0.0
 40
0.999991
100
AcDbArc
 50
-84.999809
 51
-16.256424
  0
ARC
  5
4CA
100
AcDbEntity
  8
1
370
    30
  6
Continuous
 62
     7
100
AcDbCircle
 10
305.297991
 20
32.074412
 30
0.0
 40
0.100006
100
AcDbArc
 50
90.0
 51
180.0
  0
LINE
  5
4CB
100
AcDbEntity
  8
1
370
    30
  6
Continuous
 62
     7
100
AcDbLine
 10
307.697985
 20
43.174418
 30
0.0
 11
305.297991
 21
43.174418
 31
0.0
  0
LINE
  5
4CC
100
AcDbEntity
  8
1
370
    30
  6
Continuous
 62
     7
100
AcDbLine
 10
307.697985
 20
32.174418
 30
0.0
 11
305.297991
 21
32.174418
 31
0.0
  0
LINE
  5
4CD
100
AcDbEntity
  8
1
370
    30
  6
Continuous
 62
     7
100
AcDbLine
 10
305.197985
 20
48.674418
 30
0.0
 11
299.697985
 21
48.674418
 31
0.0
  0
LINE
  5
4CE
100
AcDbEntity
  8
1
370
    30
  6
Continuous
 62
     7
100
AcDbLine
 10
299.697985
 20
26.674418
 30
0.0
 11
305.197985
 21
26.674418
 31
0.0
  0
LINE
  5
4CF
100
AcDbEntity
  8
1
370
    30
  6
Continuous
 62
     7
100
AcDbLine
 10
268.197985
 20
30.674418
 30
0.0
 11
299.697985
 21
30.674418
 31
0.0
  0
LINE
  5
4D0
100
AcDbEntity
  8
1
370
    30
  6
Continuous
 62
     7
100
AcDbLine
 10
299.697985
 20
44.674418
 30
0.0
 11
268.197985
 21
44.674418
 31
0.0
  0
LINE
  5
4D1
100
AcDbEntity
  8
1
370
     9
  6
CENTER
 62
     7
100
AcDbLine
 10
309.086295
 20
46.174418
 30
0.0
 11
301.80986
 21
46.174418
 31
0.0
  0
LINE
  5
4D2
100
AcDbEntity
  8
1
370
     9
  6
CENTER
 62
     7
100
AcDbLine
 10
309.086295
 20
29.174418
 30
0.0
 11
301.80986
 21
29.174418
 31
0.0
  0
LINE
  5
4D3
100
AcDbEntity
  8
1
370
    30
  6
Continuous
 62
     7
100
AcDbLine
 10
307.697985
 20
40.174418
 30
0.0
 11
317.697985
 21
40.174418
 31
0.0
  0
LINE
  5
4D4
100
AcDbEntity
  8
1
370
    30
  6
Continuous
 62
     7
100
AcDbLine
 10
317.697985
 20
40.174418
 30
0.0
 11
317.697985
 21
35.174418
 31
0.0
  0
LINE
  5
4D5
100
AcDbEntity
  8
1
370
    30
  6
Continuous
 62
     7
100
AcDbLine
 10
307.697985
 20
35.174418
 30
0.0
 11
317.697985
 21
35.174418
 31
0.0
  0
LINE
  5
4D6
100
AcDbEntity
  8
1
370
    30
  6
Continuous
 62
     7
100
AcDbLine
 10
261.197985
 20
49.674418
 30
0.0
 11
261.197985
 21
25.674418
 31
0.0
  0
LINE
  5
4D7
100
AcDbEntity
  8
1
370
    30
  6
Continuous
 62
     7
100
AcDbLine
 10
268.197985
 20
49.674418
 30
0.0
 11
268.197985
 21
25.674418
 31
0.0
  0
LINE
  5
4D8
100
AcDbEntity
  8
1
370
    30
  6
Continuous
 62
     7
100
AcDbLine
 10
268.197985
 20
48.674418
 30
0.0
 11
261.197985
 21
48.674418
 31
0.0
  0
LINE
  5
4D9
100
AcDbEntity
  8
1
370
    30
  6
Continuous
 62
     7
100
AcDbLine
 10
268.197985
 20
26.674418
 30
0.0
 11
261.197985
 21
26.674418
 31
0.0
  0
LINE
  5
4DA
100
AcDbEntity
  8
1
370
    30
  6
Continuous
 62
     7
100
AcDbLine
 10
249.19797
 20
32.674418
 30
0.0
 11
249.19797
 21
45.674418
 31
0.0
  0
LINE
  5
4DB
100
AcDbEntity
  8
1
370
    30
  6
Continuous
 62
     7
100
AcDbLine
 10
240.197985
 20
29.674419
 30
0.0
 11
233.197985
 21
29.674419
 31
0.0
  0
LINE
  5
4DC
100
AcDbEntity
  8
1
370
    30
  6
Continuous
 62
     7
100
AcDbLine
 10
240.697982
 20
45.674415
 30
0.0
 11
240.697982
 21
32.674418
 31
0.0
  0
LINE
  5
4DD
100
AcDbEntity
  8
1
370
    30
  6
Continuous
 62
     7
100
AcDbLine
 10
241.097981
 20
45.324418
 30
0.0
 11
241.097981
 21
32.674418
 31
0.0
  0
LINE
  5
4DE
100
AcDbEntity
  8
1
370
    30
  6
Continuous
 62
     7
100
AcDbLine
 10
255.197985
 20
164.674418
 30
0.0
 11
255.197985
 21
114.674418
 31
0.0
  0
LINE
  5
4DF
100
AcDbEntity
  8
1
370
    30
  6
Continuous
 62
     7
100
AcDbLine
 10
255.197985
 20
114.674418
 30
0.0
 11
255.197985
 21
164.674418
 31
0.0
  0
LINE
  5
4E0
100
AcDbEntity
  8
1
370
    30
  6
Continuous
 62
     7
100
AcDbLine
 10
258.197985
 20
148.674418
 30
0.0
 11
255.197985
 21
148.674418
 31
0.0
  0
LINE
  5
4E1
100
AcDbEntity
  8
1
370
    30
  6
Continuous
 62
     7
100
AcDbLine
 10
258.197985
 20
153.674418
 30
0.0
 11
258.197985
 21
148.674418
 31
0.0
  0
LINE
  5
4E2
100
AcDbEntity
  8
1
370
    30
  6
Continuous
 62
     7
100
AcDbLine
 10
258.197985
 20
153.674418
 30
0.0
 11
255.197985
 21
153.674418
 31
0.0
  0
LINE
  5
4E3
100
AcDbEntity
  8
1
370
    30
  6
Continuous
 62
     7
100
AcDbLine
 10
258.197985
 20
125.674418
 30
0.0
 11
255.197985
 21
125.674418
 31
0.0
  0
LINE
  5
4E4
100
AcDbEntity
  8
1
370
    30
  6
Continuous
 62
     7
100
AcDbLine
 10
258.197985
 20
130.674418
 30
0.0
 11
258.197985
 21
125.674418
 31
0.0
  0
LINE
  5
4E5
100
AcDbEntity
  8
1
370
    30
  6
Continuous
 62
     7
100
AcDbLine
 10
258.197985
 20
130.674418
 30
0.0
 11
255.197985
 21
130.674418
 31
0.0
  0
LINE
  5
4E6
100
AcDbEntity
  8
1
370
    30
  6
Continuous
 62
     7
100
AcDbLine
 10
261.197985
 20
153.674418
 30
0.0
 11
261.197985
 21
125.674418
 31
0.0
  0
LINE
  5
4E7
100
AcDbEntity
  8
1
370
    30
  6
Continuous
 62
     7
100
AcDbLine
 10
255.197985
 20
164.674418
 30
0.0
 11
260.197985
 21
164.674418
 31
0.0
  0
LINE
  5
4E8
100
AcDbEntity
  8
1
370
    30
  6
Continuous
 62
     7
100
AcDbLine
 10
260.197985
 20
164.674418
 30
0.0
 11
261.197985
 21
163.674418
 31
0.0
  0
LINE
  5
4E9
100
AcDbEntity
  8
1
370
    30
  6
Continuous
 62
     7
100
AcDbLine
 10
261.197985
 20
163.674418
 30
0.0
 11
261.197985
 21
115.674418
 31
0.0
  0
LINE
  5
4EA
100
AcDbEntity
  8
1
370
    30
  6
Continuous
 62
     7
100
AcDbLine
 10
255.197985
 20
114.674418
 30
0.0
 11
260.197985
 21
114.674418
 31
0.0
  0
LINE
  5
4EB
100
AcDbEntity
  8
1
370
    30
  6
Continuous
 62
     7
100
AcDbLine
 10
261.197985
 20
115.674418
 30
0.0
 11
260.197985
 21
114.674418
 31
0.0
  0
LINE
  5
4EC
100
AcDbEntity
  8
1
370
    30
  6
Continuous
 62
     7
100
AcDbLine
 10
255.697985
 20
129.824418
 30
0.0
 11
255.947985
 21
130.074418
 31
0.0
  0
LINE
  5
4ED
100
AcDbEntity
  8
1
370
    30
  6
Continuous
 62
     7
100
AcDbLine
 10
255.697985
 20
129.824418
 30
0.0
 11
255.697985
 21
126.524418
 31
0.0
  0
LINE
  5
4EE
100
AcDbEntity
  8
1
370
    30
  6
Continuous
 62
     7
100
AcDbLine
 10
255.697985
 20
126.524418
 30
0.0
 11
255.947985
 21
126.274418
 31
0.0
  0
LINE
  5
4EF
100
AcDbEntity
  8
1
370
    30
  6
Continuous
 62
     7
100
AcDbLine
 10
258.197985
 20
130.074418
 30
0.0
 11
255.947985
 21
130.074418
 31
0.0
  0
LINE
  5
4F0
100
AcDbEntity
  8
1
370
    30
  6
Continuous
 62
     7
100
AcDbLine
 10
255.947985
 20
130.074418
 30
0.0
 11
255.947985
 21
126.274418
 31
0.0
  0
LINE
  5
4F1
100
AcDbEntity
  8
1
370
    30
  6
Continuous
 62
     7
100
AcDbLine
 10
258.197985
 20
126.274418
 30
0.0
 11
255.947985
 21
126.274418
 31
0.0
  0
LINE
  5
4F2
100
AcDbEntity
  8
1
370
    30
  6
Continuous
 62
     7
100
AcDbLine
 10
258.197985
 20
153.074418
 30
0.0
 11
255.947985
 21
153.074418
 31
0.0
  0
LINE
  5
4F3
100
AcDbEntity
  8
1
370
    30
  6
Continuous
 62
     7
100
AcDbLine
 10
255.947985
 20
153.074418
 30
0.0
 11
255.697985
 21
152.824418
 31
0.0
  0
LINE
  5
4F4
100
AcDbEntity
  8
1
370
    30
  6
Continuous
 62
     7
100
AcDbLine
 10
255.697985
 20
152.824418
 30
0.0
 11
255.697985
 21
149.524418
 31
0.0
  0
LINE
  5
4F5
100
AcDbEntity
  8
1
370
    30
  6
Continuous
 62
     7
100
AcDbLine
 10
258.197985
 20
149.274418
 30
0.0
 11
255.947985
 21
149.274418
 31
0.0
  0
LINE
  5
4F6
100
AcDbEntity
  8
1
370
    30
  6
Continuous
 62
     7
100
AcDbLine
 10
255.697985
 20
149.524418
 30
0.0
 11
255.947985
 21
149.274418
 31
0.0
  0
LINE
  5
4F7
100
AcDbEntity
  8
1
370
    30
  6
Continuous
 62
     7
100
AcDbLine
 10
255.947985
 20
153.074418
 30
0.0
 11
255.947985
 21
149.274418
 31
0.0
  0
LINE
  5
4F8
100
AcDbEntity
  8
1
370
     9
  6
CENTER
 62
     7
100
AcDbLine
 10
263.73055
 20
151.174418
 30
0.0
 11
252.725348
 21
151.174418
 31
0.0
  0
LINE
  5
4F9
100
AcDbEntity
  8
1
370
     9
  6
CENTER
 62
     7
100
AcDbLine
 10
252.725348
 20
128.174418
 30
0.0
 11
263.73055
 21
128.174418
 31
0.0
  0
LINE
  5
4FA
100
AcDbEntity
  8
1
370
    30
  6
Continuous
 62
     7
100
AcDbLine
 10
250.197985
 20
164.674418
 30
0.0
 11
250.197985
 21
114.674418
 31
0.0
  0
LINE
  5
4FB
100
AcDbEntity
  8
1
370
    30
  6
Continuous
 62
     7
100
AcDbLine
 10
255.197985
 20
164.674418
 30
0.0
 11
241.197985
 21
164.674418
 31
0.0
  0
LINE
  5
4FC
100
AcDbEntity
  8
1
370
    30
  6
Continuous
 62
     7
100
AcDbLine
 10
241.197985
 20
164.674418
 30
0.0
 11
240.197985
 21
163.674418
 31
0.0
  0
LINE
  5
4FD
100
AcDbEntity
  8
1
370
    30
  6
Continuous
 62
     7
100
AcDbLine
 10
240.197985
 20
163.674418
 30
0.0
 11
240.197985
 21
153.674418
 31
0.0
  0
LINE
  5
4FE
100
AcDbEntity
  8
1
370
    30
  6
Continuous
 62
     7
100
AcDbLine
 10
250.197985
 20
152.674418
 30
0.0
 11
241.197985
 21
152.674418
 31
0.0
  0
LINE
  5
4FF
100
AcDbEntity
  8
1
370
    30
  6
Continuous
 62
     7
100
AcDbLine
 10
240.197985
 20
153.674418
 30
0.0
 11
241.197985
 21
152.674418
 31
0.0
  0
LINE
  5
500
100
AcDbEntity
  8
1
370
    30
  6
Continuous
 62
     7
100
AcDbLine
 10
250.197985
 20
126.674418
 30
0.0
 11
241.197985
 21
126.674418
 31
0.0
  0
LINE
  5
501
100
AcDbEntity
  8
1
370
    30
  6
Continuous
 62
     7
100
AcDbLine
 10
241.197985
 20
126.674418
 30
0.0
 11
240.197985
 21
125.674418
 31
0.0
  0
LINE
  5
502
100
AcDbEntity
  8
1
370
    30
  6
Continuous
 62
     7
100
AcDbLine
 10
240.197985
 20
125.674418
 30
0.0
 11
240.197985
 21
115.674418
 31
0.0
  0
LINE
  5
503
100
AcDbEntity
  8
1
370
    30
  6
Continuous
 62
     7
100
AcDbLine
 10
255.197985
 20
114.674418
 30
0.0
 11
241.197985
 21
114.674418
 31
0.0
  0
LINE
  5
504
100
AcDbEntity
  8
1
370
    30
  6
Continuous
 62
     7
100
AcDbLine
 10
240.197985
 20
115.674418
 30
0.0
 11
241.197985
 21
114.674418
 31
0.0
  0
LINE
  5
505
100
AcDbEntity
  8
1
370
    30
  6
Continuous
 62
     7
100
AcDbLine
 10
246.06401
 20
121.174418
 30
0.0
 11
246.930035
 21
119.674418
 31
0.0
  0
LINE
  5
506
100
AcDbEntity
  8
1
370
    30
  6
Continuous
 62
     7
100
AcDbLine
 10
244.331959
 20
121.174418
 30
0.0
 11
246.06401
 21
121.174418
 31
0.0
  0
LINE
  5
507
100
AcDbEntity
  8
1
370
    30
  6
Continuous
 62
     7
100
AcDbLine
 10
243.465934
 20
119.674418
 30
0.0
 11
244.331959
 21
121.174418
 31
0.0
  0
LINE
  5
508
100
AcDbEntity
  8
1
370
    30
  6
Continuous
 62
     7
100
AcDbLine
 10
244.331959
 20
118.174418
 30
0.0
 11
243.465934
 21
119.674418
 31
0.0
  0
LINE
  5
509
100
AcDbEntity
  8
1
370
    30
  6
Continuous
 62
     7
100
AcDbLine
 10
246.06401
 20
118.174418
 30
0.0
 11
244.331959
 21
118.174418
 31
0.0
  0
LINE
  5
50A
100
AcDbEntity
  8
1
370
    30
  6
Continuous
 62
     7
100
AcDbLine
 10
246.930035
 20
119.674418
 30
0.0
 11
246.06401
 21
118.174418
 31
0.0
  0
CIRCLE
  5
50B
100
AcDbEntity
  8
1
370
    30
  6
Continuous
 62
     7
100
AcDbCircle
 10
245.197985
 20
119.674418
 30
0.0
 40
3.5
  0
LINE
  5
50C
100
AcDbEntity
  8
1
370
    30
  6
Continuous
 62
     7
100
AcDbLine
 10
246.06401
 20
161.174418
 30
0.0
 11
246.930035
 21
159.674418
 31
0.0
  0
LINE
  5
50D
100
AcDbEntity
  8
1
370
    30
  6
Continuous
 62
     7
100
AcDbLine
 10
244.331959
 20
161.174418
 30
0.0
 11
246.06401
 21
161.174418
 31
0.0
  0
LINE
  5
50E
100
AcDbEntity
  8
1
370
    30
  6
Continuous
 62
     7
100
AcDbLine
 10
243.465934
 20
159.674418
 30
0.0
 11
244.331959
 21
161.174418
 31
0.0
  0
LINE
  5
50F
100
AcDbEntity
  8
1
370
    30
  6
Continuous
 62
     7
100
AcDbLine
 10
244.331959
 20
158.174418
 30
0.0
 11
243.465934
 21
159.674418
 31
0.0
  0
LINE
  5
510
100
AcDbEntity
  8
1
370
    30
  6
Continuous
 62
     7
100
AcDbLine
 10
246.06401
 20
158.174418
 30
0.0
 11
244.331959
 21
158.174418
 31
0.0
  0
LINE
  5
511
100
AcDbEntity
  8
1
370
    30
  6
Continuous
 62
     7
100
AcDbLine
 10
246.930035
 20
159.674418
 30
0.0
 11
246.06401
 21
158.174418
 31
0.0
  0
CIRCLE
  5
512
100
AcDbEntity
  8
1
370
    30
  6
Continuous
 62
     7
100
AcDbCircle
 10
245.197985
 20
159.674418
 30
0.0
 40
3.5
  0
LINE
  5
513
100
AcDbEntity
  8
1
370
     9
  6
CENTER
 62
     7
100
AcDbLine
 10
250.82825
 20
159.674418
 30
0.0
 11
240.5105
 21
159.674418
 31
0.0
  0
LINE
  5
514
100
AcDbEntity
  8
1
370
     9
  6
CENTER
 62
     7
100
AcDbLine
 10
245.197985
 20
155.021204
 30
0.0
 11
245.197985
 21
164.471792
 31
0.0
  0
LINE
  5
515
100
AcDbEntity
  8
1
370
     9
  6
CENTER
 62
     7
100
AcDbLine
 10
249.770019
 20
119.674418
 30
0.0
 11
240.833849
 21
119.674418
 31
0.0
  0
LINE
  5
516
100
AcDbEntity
  8
1
370
     9
  6
CENTER
 62
     7
100
AcDbLine
 10
245.197985
 20
115.102391
 30
0.0
 11
245.197985
 21
124.538281
 31
0.0
  0
LINE
  5
517
100
AcDbEntity
  8
1
370
     9
  6
CENTER
 62
     7
100
AcDbLine
 10
245.197985
 20
26.343093
 30
0.0
 11
245.197985
 21
37.209064
 31
0.0
  0
LINE
  5
518
100
AcDbEntity
  8
1
370
    30
  6
Continuous
 62
     7
100
AcDbLine
 10
255.197985
 20
27.674418
 30
0.0
 11
255.197985
 21
51.674418
 31
0.0
  0
LINE
  5
519
100
AcDbEntity
  8
1
370
    30
  6
Continuous
 62
     7
100
AcDbLine
 10
255.197985
 20
51.674418
 30
0.0
 11
255.197985
 21
23.674418
 31
0.0
  0
LINE
  5
51A
100
AcDbEntity
  8
1
370
    30
  6
Continuous
 62
     7
100
AcDbLine
 10
250.197985
 20
51.674418
 30
0.0
 11
255.197985
 21
51.674418
 31
0.0
  0
LINE
  5
51B
100
AcDbEntity
  8
1
370
    30
  6
Continuous
 62
     7
100
AcDbLine
 10
250.197985
 20
51.674418
 30
0.0
 11
250.197985
 21
32.674418
 31
0.0
  0
LINE
  5
51C
100
AcDbEntity
  8
1
370
    30
  6
Continuous
 62
     7
100
AcDbLine
 10
240.197985
 20
32.674418
 30
0.0
 11
250.197985
 21
32.674418
 31
0.0
  0
LINE
  5
51D
100
AcDbEntity
  8
1
370
    30
  6
Continuous
 62
     7
100
AcDbLine
 10
240.197985
 20
32.674418
 30
0.0
 11
240.197985
 21
27.674418
 31
0.0
  0
LINE
  5
51E
100
AcDbEntity
  8
1
370
    30
  6
Continuous
 62
     7
100
AcDbLine
 10
240.197985
 20
27.674418
 30
0.0
 11
255.197985
 21
27.674418
 31
0.0
  0
LINE
  5
51F
100
AcDbEntity
  8
1
370
    30
  6
Continuous
 62
     7
100
AcDbLine
 10
242.097985
 20
36.674418
 30
0.0
 11
241.697985
 21
36.274418
 31
0.0
  0
LINE
  5
520
100
AcDbEntity
  8
1
370
    30
  6
Continuous
 62
     7
100
AcDbLine
 10
242.097985
 20
36.674418
 30
0.0
 11
248.297985
 21
36.674418
 31
0.0
  0
LINE
  5
521
100
AcDbEntity
  8
1
370
    30
  6
Continuous
 62
     7
100
AcDbLine
 10
248.297985
 20
36.674418
 30
0.0
 11
248.697985
 21
36.274418
 31
0.0
  0
LINE
  5
522
100
AcDbEntity
  8
1
370
    30
  6
Continuous
 62
     7
100
AcDbLine
 10
241.697985
 20
36.274418
 30
0.0
 11
248.697985
 21
36.274418
 31
0.0
  0
LINE
  5
523
100
AcDbEntity
  8
1
370
    30
  6
Continuous
 62
     7
100
AcDbLine
 10
241.697985
 20
32.674418
 30
0.0
 11
241.697985
 21
36.274418
 31
0.0
  0
LINE
  5
524
100
AcDbEntity
  8
1
370
    30
  6
Continuous
 62
     7
100
AcDbLine
 10
248.697985
 20
32.674418
 30
0.0
 11
248.697985
 21
36.274418
 31
0.0
  0
ARC
  5
525
100
AcDbEntity
  8
1
370
    30
  6
Continuous
 62
     7
100
AcDbCircle
 10
247.137138
 20
133.275403
 30
0.0
 40
0.360832
100
AcDbArc
 50
-21.178748
 51
-0.155429
  0
ARC
  5
526
100
AcDbEntity
  8
1
370
    30
  6
Continuous
 62
     7
100
AcDbCircle
 10
247.06477
 20
133.30446
 30
0.0
 40
0.438811
100
AcDbArc
 50
-38.555369
 51
-21.302677
  0
ARC
  5
527
100
AcDbEntity
  8
1
370
    30
  6
Continuous
 62
     7
100
AcDbCircle
 10
246.957959
 20
133.388888
 30
0.0
 40
0.574959
100
AcDbArc
 50
-51.687704
 51
-38.500693
  0
ARC
  5
528
100
AcDbEntity
  8
1
370
    30
  6
Continuous
 62
     7
100
AcDbCircle
 10
246.854934
 20
133.517663
 30
0.0
 40
0.739873
100
AcDbArc
 50
-61.853964
 51
-51.609898
  0
ARC
  5
529
100
AcDbEntity
  8
1
370
    30
  6
Continuous
 62
     7
100
AcDbCircle
 10
246.776302
 20
133.662784
 30
0.0
 40
0.904926
100
AcDbArc
 50
-70.161318
 51
-61.798486
  0
ARC
  5
52A
100
AcDbEntity
  8
1
370
    30
  6
Continuous
 62
     7
100
AcDbCircle
 10
246.727381
 20
133.796391
 30
0.0
 40
1.047206
100
AcDbArc
 50
-77.337847
 51
-70.124384
  0
ARC
  5
52B
100
AcDbEntity
  8
1
370
    30
  6
Continuous
 62
     7
100
AcDbCircle
 10
246.704272
 20
133.896936
 30
0.0
 40
1.150371
100
AcDbArc
 50
-83.869929
 51
-77.312573
  0
ARC
  5
52C
100
AcDbEntity
  8
1
370
    30
  6
Continuous
 62
     7
100
AcDbCircle
 10
246.698136
 20
133.950224
 30
0.0
 40
1.20401
100
AcDbArc
 50
-90.112649
 51
-83.850379
  0
ARC
  5
52D
100
AcDbEntity
  8
1
370
    30
  6
Continuous
 62
     7
100
AcDbCircle
 10
246.697754
 20
133.949187
 30
0.0
 40
1.202972
100
AcDbArc
 50
-96.415159
 51
-90.094556
  0
ARC
  5
52E
100
AcDbEntity
  8
1
370
    30
  6
Continuous
 62
     7
100
AcDbCircle
 10
246.691106
 20
133.893559
 30
0.0
 40
1.14695
100
AcDbArc
 50
-102.978855
 51
-96.395622
  0
ARC
  5
52F
100
AcDbEntity
  8
1
370
    30
  6
Continuous
 62
     7
100
AcDbCircle
 10
246.667052
 20
133.791274
 30
0.0
 40
1.041876
100
AcDbArc
 50
-110.199229
 51
-102.953194
  0
ARC
  5
530
100
AcDbEntity
  8
1
370
    30
  6
Continuous
 62
     7
100
AcDbCircle
 10
246.616947
 20
133.656777
 30
0.0
 40
0.898351
100
AcDbArc
 50
-118.576262
 51
-110.161979
  0
ARC
  5
531
100
AcDbEntity
  8
1
370
    30
  6
Continuous
 62
     7
100
AcDbCircle
 10
246.537468
 20
133.512333
 30
0.0
 40
0.733486
100
AcDbArc
 50
-128.787619
 51
-118.52118
  0
ARC
  5
532
100
AcDbEntity
  8
1
370
    30
  6
Continuous
 62
     7
100
AcDbCircle
 10
246.434807
 20
133.385759
 30
0.0
 40
0.570514
100
AcDbArc
 50
-141.871338
 51
-128.714239
  0
ARC
  5
533
100
AcDbEntity
  8
1
370
    30
  6
Continuous
 62
     7
100
AcDbCircle
 10
246.329234
 20
133.30339
 30
0.0
 40
0.436611
100
AcDbArc
 50
-158.99108
 51
-141.82002
  0
ARC
  5
534
100
AcDbEntity
  8
1
370
    30
  6
Continuous
 62
     7
100
AcDbCircle
 10
246.258456
 20
133.275362
 30
0.0
 40
0.360491
100
AcDbArc
 50
-179.850924
 51
-159.116701
  0
ARC
  5
535
100
AcDbEntity
  8
1
370
    30
  6
Continuous
 62
     7
100
AcDbCircle
 10
246.491927
 20
133.274195
 30
0.0
 40
0.59396
100
AcDbArc
 50
165.713045
 51
179.97788
  0
ARC
  5
536
100
AcDbEntity
  8
1
370
    30
  6
Continuous
 62
     7
100
AcDbCircle
 10
246.518573
 20
133.267043
 30
0.0
 40
0.621547
100
AcDbArc
 50
152.193002
 51
165.680378
  0
ARC
  5
537
100
AcDbEntity
  8
1
370
    30
  6
Continuous
 62
     7
100
AcDbCircle
 10
246.562486
 20
133.243704
 30
0.0
 40
0.671277
100
AcDbArc
 50
139.688082
 51
152.179414
  0
ARC
  5
538
100
AcDbEntity
  8
1
370
    30
  6
Continuous
 62
     7
100
AcDbCircle
 10
246.610707
 20
133.202843
 30
0.0
 40
0.734482
100
AcDbArc
 50
128.276911
 51
139.691085
  0
ARC
  5
539
100
AcDbEntity
  8
1
370
    30
  6
Continuous
 62
     7
100
AcDbCircle
 10
246.651947
 20
133.150862
 30
0.0
 40
0.800835
100
AcDbArc
 50
117.826473
 51
128.289355
  0
ARC
  5
53A
100
AcDbEntity
  8
1
370
    30
  6
Continuous
 62
     7
100
AcDbCircle
 10
246.679942
 20
133.0983
 30
0.0
 40
0.860387
100
AcDbArc
 50
108.108025
 51
117.841297
  0
ARC
  5
53B
100
AcDbEntity
  8
1
370
    30
  6
Continuous
 62
     7
100
AcDbCircle
 10
246.693991
 20
133.056132
 30
0.0
 40
0.904833
100
AcDbArc
 50
98.870853
 51
108.123652
  0
ARC
  5
53C
100
AcDbEntity
  8
1
370
    30
  6
Continuous
 62
     7
100
AcDbCircle
 10
246.697862
 20
133.032899
 30
0.0
 40
0.928385
100
AcDbArc
 50
89.864863
 51
98.885786
  0
ARC
  5
53D
100
AcDbEntity
  8
1
370
    30
  6
Continuous
 62
     7
100
AcDbCircle
 10
246.698103
 20
133.033256
 30
0.0
 40
0.928028
100
AcDbArc
 50
80.851135
 51
89.879701
  0
ARC
  5
53E
100
AcDbEntity
  8
1
370
    30
  6
Continuous
 62
     7
100
AcDbCircle
 10
246.702189
 20
133.057137
 30
0.0
 40
0.903801
100
AcDbArc
 50
71.596435
 51
80.866175
  0
ARC
  5
53F
100
AcDbEntity
  8
1
370
    30
  6
Continuous
 62
     7
100
AcDbCircle
 10
246.716621
 20
133.09978
 30
0.0
 40
0.858783
100
AcDbArc
 50
61.857831
 51
71.611856
  0
ARC
  5
540
100
AcDbEntity
  8
1
370
    30
  6
Continuous
 62
     7
100
AcDbCircle
 10
246.745044
 20
133.152471
 30
0.0
 40
0.798915
100
AcDbArc
 50
51.389758
 51
61.872934
  0
ARC
  5
541
100
AcDbEntity
  8
1
370
    30
  6
Continuous
 62
     7
100
AcDbCircle
 10
246.786563
 20
133.204216
 30
0.0
 40
0.732572
100
AcDbArc
 50
40.007861
 51
51.401759
  0
ARC
  5
542
100
AcDbEntity
  8
1
370
    30
  6
Continuous
 62
     7
100
AcDbCircle
 10
246.834601
 20
133.244479
 30
0.0
 40
0.669893
100
AcDbArc
 50
27.528001
 51
40.011538
  0
ARC
  5
543
100
AcDbEntity
  8
1
370
    30
  6
Continuous
 62
     7
100
AcDbCircle
 10
246.878057
 20
133.267301
 30
0.0
 40
0.620808
100
AcDbArc
 50
14.122362
 51
27.513818
  0
ARC
  5
544
100
AcDbEntity
  8
1
370
    30
  6
Continuous
 62
     7
100
AcDbCircle
 10
246.904146
 20
133.274209
 30
0.0
 40
0.593823
100
AcDbArc
 50
0.02079
 51
14.090238
  0
ARC
  5
545
100
AcDbEntity
  8
1
370
    30
  6
Continuous
 62
     7
100
AcDbCircle
 10
247.271953
 20
133.275846
 30
0.0
 40
0.426019
100
AcDbArc
 50
-22.292312
 51
-0.191307
  0
ARC
  5
546
100
AcDbEntity
  8
1
370
    30
  6
Continuous
 62
     7
100
AcDbCircle
 10
247.174179
 20
133.31722
 30
0.0
 40
0.532181
100
AcDbArc
 50
-40.019713
 51
-22.420704
  0
ARC
  5
547
100
AcDbEntity
  8
1
370
    30
  6
Continuous
 62
     7
100
AcDbCircle
 10
247.032681
 20
133.434767
 30
0.0
 40
0.716133
100
AcDbArc
 50
-53.042262
 51
-39.942096
  0
ARC
  5
548
100
AcDbEntity
  8
1
370
    30
  6
Continuous
 62
     7
100
AcDbCircle
 10
246.898526
 20
133.610636
 30
0.0
 40
0.937325
100
AcDbArc
 50
-62.956869
 51
-52.95276
  0
ARC
  5
549
100
AcDbEntity
  8
1
370
    30
  6
Continuous
 62
     7
100
AcDbCircle
 10
246.797437
 20
133.806012
 30
0.0
 40
1.157301
100
AcDbArc
 50
-70.985694
 51
-62.897167
  0
ARC
  5
54A
100
AcDbEntity
  8
1
370
    30
  6
Continuous
 62
     7
100
AcDbCircle
 10
246.735112
 20
133.984164
 30
0.0
 40
1.346039
100
AcDbArc
 50
-77.888807
 51
-70.948156
  0
ARC
  5
54B
100
AcDbEntity
  8
1
370
    30
  6
Continuous
 62
     7
100
AcDbCircle
 10
246.705875
 20
134.117283
 30
0.0
 40
1.482329
100
AcDbArc
 50
-84.156205
 51
-77.863425
  0
ARC
  5
54C
100
AcDbEntity
  8
1
370
    30
  6
Continuous
 62
     7
100
AcDbCircle
 10
246.698172
 20
134.187401
 30
0.0
 40
1.552867
100
AcDbArc
 50
-90.140481
 51
-84.13689
  0
ARC
  5
54D
100
AcDbEntity
  8
1
370
    30
  6
Continuous
 62
     7
100
AcDbCircle
 10
246.697688
 20
134.185744
 30
0.0
 40
1.551209
100
AcDbArc
 50
-96.143788
 51
-90.122759
  0
ARC
  5
54E
100
AcDbEntity
  8
1
370
    30
  6
Continuous
 62
     7
100
AcDbCircle
 10
246.689283
 20
134.112369
 30
0.0
 40
1.477356
100
AcDbArc
 50
-102.444441
 51
-96.124251
  0
ARC
  5
54F
100
AcDbEntity
  8
1
370
    30
  6
Continuous
 62
     7
100
AcDbCircle
 10
246.658723
 20
133.976652
 30
0.0
 40
1.338243
100
AcDbArc
 50
-109.394982
 51
-102.418924
  0
ARC
  5
550
100
AcDbEntity
  8
1
370
    30
  6
Continuous
 62
     7
100
AcDbCircle
 10
246.594776
 20
133.797315
 30
0.0
 40
1.147847
100
AcDbArc
 50
-117.49321
 51
-109.356816
  0
ARC
  5
551
100
AcDbEntity
  8
1
370
    30
  6
Continuous
 62
     7
100
AcDbCircle
 10
246.492526
 20
133.602904
 30
0.0
 40
0.928189
100
AcDbArc
 50
-127.463077
 51
-117.434329
  0
ARC
  5
552
100
AcDbEntity
  8
1
370
    30
  6
Continuous
 62
     7
100
AcDbCircle
 10
246.358889
 20
133.430239
 30
0.0
 40
0.709853
100
AcDbArc
 50
-140.445358
 51
-127.378326
  0
ARC
  5
553
100
AcDbEntity
  8
1
370
    30
  6
Continuous
 62
     7
100
AcDbCircle
 10
246.219162
 20
133.315709
 30
0.0
 40
0.529187
100
AcDbArc
 50
-157.870401
 51
-140.372221
  0
ARC
  5
554
100
AcDbEntity
  8
1
370
    30
  6
Continuous
 62
     7
100
AcDbCircle
 10
246.123465
 20
133.275774
 30
0.0
 40
0.425497
100
AcDbArc
 50
-179.818213
 51
-157.997462
  0
ARC
  5
555
100
AcDbEntity
  8
1
370
    30
  6
Continuous
 62
     7
100
AcDbCircle
 10
246.494
 20
133.274227
 30
0.0
 40
0.796031
100
AcDbArc
 50
166.632715
 51
179.985832
  0
ARC
  5
556
100
AcDbEntity
  8
1
370
    30
  6
Continuous
 62
     7
100
AcDbCircle
 10
246.51917
 20
133.267902
 30
0.0
 40
0.821981
100
AcDbArc
 50
153.654981
 51
166.609377
  0
ARC
  5
557
100
AcDbEntity
  8
1
370
    30
  6
Continuous
 62
     7
100
AcDbCircle
 10
246.561562
 20
133.246711
 30
0.0
 40
0.869374
100
AcDbArc
 50
141.393239
 51
153.643319
  0
ARC
  5
558
100
AcDbEntity
  8
1
370
    30
  6
Continuous
 62
     7
100
AcDbCircle
 10
246.609058
 20
133.208779
 30
0.0
 40
0.930159
100
AcDbArc
 50
129.945763
 51
141.392855
  0
ARC
  5
559
100
AcDbEntity
  8
1
370
    30
  6
Continuous
 62
     7
100
AcDbCircle
 10
246.650495
 20
133.159494
 30
0.0
 40
0.994548
100
AcDbArc
 50
119.251666
 51
129.952891
  0
ARC
  5
55A
100
AcDbEntity
  8
1
370
    30
  6
Continuous
 62
     7
100
AcDbCircle
 10
246.679135
 20
133.108774
 30
0.0
 40
1.052795
100
AcDbArc
 50
109.158017
 51
119.262759
  0
ARC
  5
55B
100
AcDbEntity
  8
1
370
    30
  6
Continuous
 62
     7
100
AcDbCircle
 10
246.693742
 20
133.067448
 30
0.0
 40
1.096626
100
AcDbArc
 50
99.470441
 51
109.170333
  0
ARC
  5
55C
100
AcDbEntity
  8
1
370
    30
  6
Continuous
 62
     7
100
AcDbCircle
 10
246.697845
 20
133.044359
 30
0.0
 40
1.120075
100
AcDbArc
 50
89.99364
 51
99.483139
  0
ARC
  5
55D
100
AcDbEntity
  8
1
370
    30
  6
Continuous
 62
     7
100
AcDbCircle
 10
246.698098
 20
133.044431
 30
0.0
 40
1.120003
100
AcDbArc
 50
80.436349
 51
90.006554
  0
ARC
  5
55E
100
AcDbEntity
  8
1
370
    30
  6
Continuous
 62
     7
100
AcDbCircle
 10
246.702271
 20
133.067744
 30
0.0
 40
1.096321
100
AcDbArc
 50
70.740565
 51
80.449018
  0
ARC
  5
55F
100
AcDbEntity
  8
1
370
    30
  6
Continuous
 62
     7
100
AcDbCircle
 10
246.717001
 20
133.109214
 30
0.0
 40
1.052314
100
AcDbArc
 50
60.640018
 51
70.752923
  0
ARC
  5
560
100
AcDbEntity
  8
1
370
    30
  6
Continuous
 62
     7
100
AcDbCircle
 10
246.745776
 20
133.159974
 30
0.0
 40
0.993965
100
AcDbArc
 50
49.946594
 51
60.651018
  0
ARC
  5
561
100
AcDbEntity
  8
1
370
    30
  6
Continuous
 62
     7
100
AcDbCircle
 10
246.787277
 20
133.20916
 30
0.0
 40
0.92961
100
AcDbArc
 50
38.513693
 51
49.9537
  0
ARC
  5
562
100
AcDbEntity
  8
1
370
    30
  6
Continuous
 62
     7
100
AcDbCircle
 10
246.834716
 20
133.246924
 30
0.0
 40
0.868975
100
AcDbArc
 50
26.27697
 51
38.513124
  0
ARC
  5
563
100
AcDbEntity
  8
1
370
    30
  6
Continuous
 62
     7
100
AcDbCircle
 10
246.876908
 20
133.267948
 30
0.0
 40
0.821835
100
AcDbArc
 50
13.381242
 51
26.264939
  0
ARC
  5
564
100
AcDbEntity
  8
1
370
    30
  6
Continuous
 62
     7
100
AcDbCircle
 10
246.901942
 20
133.274227
 30
0.0
 40
0.796027
100
AcDbArc
 50
0.014157
 51
13.358592
  0
ARC
  5
565
100
AcDbEntity
  8
1
370
    30
  6
Continuous
 62
     7
100
AcDbCircle
 10
246.172863
 20
146.074123
 30
0.0
 40
2.625106
100
AcDbArc
 50
-9.573412
 51
0.00631
  0
ARC
  5
566
100
AcDbEntity
  8
1
370
    30
  6
Continuous
 62
     7
100
AcDbCircle
 10
246.22601
 20
146.064592
 30
0.0
 40
2.571114
100
AcDbArc
 50
-19.310709
 51
-9.560934
  0
ARC
  5
567
100
AcDbEntity
  8
1
370
    30
  6
Continuous
 62
     7
100
AcDbCircle
 10
246.320761
 20
146.03084
 30
0.0
 40
2.470532
100
AcDbArc
 50
-29.44382
 51
-19.298668
  0
ARC
  5
568
100
AcDbEntity
  8
1
370
    30
  6
Continuous
 62
     7
100
AcDbCircle
 10
246.436727
 20
145.964886
 30
0.0
 40
2.337124
100
AcDbArc
 50
-40.15536
 51
-29.433286
  0
ARC
  5
569
100
AcDbEntity
  8
1
370
    30
  6
Continuous
 62
     7
100
AcDbCircle
 10
246.549041
 20
145.869787
 30
0.0
 40
2.189956
100
AcDbArc
 50
-51.592348
 51
-40.148624
  0
ARC
  5
56A
100
AcDbEntity
  8
1
370
    30
  6
Continuous
 62
     7
100
AcDbCircle
 10
246.635216
 20
145.761125
 30
0.0
 40
2.051271
100
AcDbArc
 50
-63.802067
 51
-51.59293
  0
ARC
  5
56B
100
AcDbEntity
  8
1
370
    30
  6
Continuous
 62
     7
100
AcDbCircle
 10
246.683199
 20
145.664501
 30
0.0
 40
1.94339
100
AcDbArc
 50
-76.686016
 51
-63.813772
  0
ARC
  5
56C
100
AcDbEntity
  8
1
370
    30
  6
Continuous
 62
     7
100
AcDbCircle
 10
246.697525
 20
145.607158
 30
0.0
 40
1.884289
100
AcDbArc
 50
-89.986485
 51
-76.708396
  0
ARC
  5
56D
100
AcDbEntity
  8
1
370
    30
  6
Continuous
 62
     7
100
AcDbCircle
 10
246.698417
 20
145.607182
 30
0.0
 40
1.884313
100
AcDbArc
 50
-103.310906
 51
-90.013587
  0
ARC
  5
56E
100
AcDbEntity
  8
1
370
    30
  6
Continuous
 62
     7
100
AcDbCircle
 10
246.712812
 20
145.664717
 30
0.0
 40
1.943616
100
AcDbArc
 50
-116.236349
 51
-103.333377
  0
ARC
  5
56F
100
AcDbEntity
  8
1
370
    30
  6
Continuous
 62
     7
100
AcDbCircle
 10
246.761047
 20
145.761651
 30
0.0
 40
2.051888
100
AcDbArc
 50
-128.471798
 51
-116.247911
  0
ARC
  5
570
100
AcDbEntity
  8
1
370
    30
  6
Continuous
 62
     7
100
AcDbCircle
 10
246.847488
 20
145.870396
 30
0.0
 40
2.190803
100
AcDbArc
 50
-139.918676
 51
-128.472373
  0
ARC
  5
571
100
AcDbEntity
  8
1
370
    30
  6
Continuous
 62
     7
100
AcDbCircle
 10
246.959948
 20
145.965404
 30
0.0
 40
2.338024
100
AcDbArc
 50
-150.632553
 51
-139.911717
  0
ARC
  5
572
100
AcDbEntity
  8
1
370
    30
  6
Continuous
 62
     7
100
AcDbCircle
 10
247.07585
 20
146.031147
 30
0.0
 40
2.471272
100
AcDbArc
 50
-160.760513
 51
-150.622013
  0
ARC
  5
573
100
AcDbEntity
  8
1
370
    30
  6
Continuous
 62
     7
100
AcDbCircle
 10
247.170355
 20
146.064704
 30
0.0
 40
2.571557
100
AcDbArc
 50
-170.490706
 51
-160.748447
  0
ARC
  5
574
100
AcDbEntity
  8
1
370
    30
  6
Continuous
 62
     7
100
AcDbCircle
 10
247.223159
 20
146.074124
 30
0.0
 40
2.625192
100
AcDbArc
 50
179.993706
 51
-170.478326
  0
ARC
  5
575
100
AcDbEntity
  8
1
370
    30
  6
Continuous
 62
     7
100
AcDbCircle
 10
245.258507
 20
146.06842
 30
0.0
 40
0.660586
100
AcDbArc
 50
151.127059
 51
179.297145
  0
ARC
  5
576
100
AcDbEntity
  8
1
370
    30
  6
Continuous
 62
     7
100
AcDbCircle
 10
245.54454
 20
145.909583
 30
0.0
 40
0.987761
100
AcDbArc
 50
132.203608
 51
151.070453
  0
ARC
  5
577
100
AcDbEntity
  8
1
370
    30
  6
Continuous
 62
     7
100
AcDbCircle
 10
245.917649
 20
145.508326
 30
0.0
 40
1.535655
100
AcDbArc
 50
120.353247
 51
132.458557
  0
ARC
  5
578
100
AcDbEntity
  8
1
370
    30
  6
Continuous
 62
     7
100
AcDbCircle
 10
246.242993
 20
144.963426
 30
0.0
 40
2.170277
100
AcDbArc
 50
111.931383
 51
120.495645
  0
ARC
  5
579
100
AcDbEntity
  8
1
370
    30
  6
Continuous
 62
     7
100
AcDbCircle
 10
246.476477
 20
144.392589
 30
0.0
 40
2.78701
100
AcDbArc
 50
105.304526
 51
112.000905
  0
ARC
  5
57A
100
AcDbEntity
  8
1
370
    30
  6
Continuous
 62
     7
100
AcDbCircle
 10
246.616255
 20
143.890248
 30
0.0
 40
3.308432
100
AcDbArc
 50
99.718707
 51
105.34312
  0
ARC
  5
57B
100
AcDbEntity
  8
1
370
    30
  6
Continuous
 62
     7
100
AcDbCircle
 10
246.680618
 20
143.52342
 30
0.0
 40
3.68086
100
AcDbArc
 50
94.69824
 51
99.742287
  0
ARC
  5
57C
100
AcDbEntity
  8
1
370
    30
  6
Continuous
 62
     7
100
AcDbCircle
 10
246.697507
 20
143.331937
 30
0.0
 40
3.873083
100
AcDbArc
 50
89.926723
 51
94.715229
  0
ARC
  5
57D
100
AcDbEntity
  8
1
370
    30
  6
Continuous
 62
     7
100
AcDbCircle
 10
246.69854
 20
143.334809
 30
0.0
 40
3.870211
100
AcDbArc
 50
85.138958
 51
89.94196
  0
ARC
  5
57E
100
AcDbEntity
  8
1
370
    30
  6
Continuous
 62
     7
100
AcDbCircle
 10
246.716432
 20
143.53221
 30
0.0
 40
3.672004
100
AcDbArc
 50
80.094716
 51
85.156115
  0
ARC
  5
57F
100
AcDbEntity
  8
1
370
    30
  6
Continuous
 62
     7
100
AcDbCircle
 10
246.782698
 20
143.903783
 30
0.0
 40
3.294571
100
AcDbArc
 50
74.477874
 51
80.118375
  0
ARC
  5
580
100
AcDbEntity
  8
1
370
    30
  6
Continuous
 62
     7
100
AcDbCircle
 10
246.924257
 20
144.406673
 30
0.0
 40
2.77214
100
AcDbArc
 50
67.830962
 51
74.515439
  0
ARC
  5
581
100
AcDbEntity
  8
1
370
    30
  6
Continuous
 62
     7
100
AcDbCircle
 10
247.159053
 20
144.975818
 30
0.0
 40
2.156473
100
AcDbArc
 50
59.296617
 51
67.902094
  0
ARC
  5
582
100
AcDbEntity
  8
1
370
    30
  6
Continuous
 62
     7
100
AcDbCircle
 10
247.485337
 20
145.517839
 30
0.0
 40
1.523838
100
AcDbArc
 50
47.282828
 51
59.439245
  0
ARC
  5
583
100
AcDbEntity
  8
1
370
    30
  6
Continuous
 62
     7
100
AcDbCircle
 10
247.856734
 20
145.913711
 30
0.0
 40
0.981047
100
AcDbArc
 50
28.665966
 51
47.535039
  0
ARC
  5
584
100
AcDbEntity
  8
1
370
    30
  6
Continuous
 62
     7
100
AcDbCircle
 10
248.138892
 20
146.06875
 30
0.0
 40
0.659101
100
AcDbArc
 50
0.492263
 51
28.6065
  0
ARC
  5
585
100
AcDbEntity
  8
1
370
    30
  6
Continuous
 62
     7
100
AcDbCircle
 10
243.94797
 20
133.767564
 30
0.0
 40
0.25
100
AcDbArc
 50
0.0
 51
-179.99999
  0
ARC
  5
586
100
AcDbEntity
  8
1
370
    30
  6
Continuous
 62
     7
100
AcDbCircle
 10
243.94797
 20
145.581273
 30
0.0
 40
0.25
100
AcDbArc
 50
179.99999
 51
0.00001
  0
ARC
  5
587
100
AcDbEntity
  8
1
370
    30
  6
Continuous
 62
     7
100
AcDbCircle
 10
238.447985
 20
134.267565
 30
0.0
 40
0.25
100
AcDbArc
 50
179.99999
 51
0.00001
  0
CIRCLE
  5
588
100
AcDbEntity
  8
1
370
    30
  6
Continuous
 62
     7
100
AcDbCircle
 10
235.697985
 20
144.474418
 30
0.0
 40
1.99
  0
LINE
  5
589
100
AcDbEntity
  8
1
370
    30
  6
Continuous
 62
     7
100
AcDbLine
 10
244.19797
 20
139.424418
 30
0.0
 11
249.19797
 21
139.424418
 31
0.0
  0
LINE
  5
58A
100
AcDbEntity
  8
1
370
    30
  6
Continuous
 62
     7
100
AcDbLine
 10
244.19797
 20
139.924418
 30
0.0
 11
249.19797
 21
139.924418
 31
0.0
  0
LINE
  5
58B
100
AcDbEntity
  8
1
370
    30
  6
Continuous
 62
     7
100
AcDbLine
 10
245.752959
 20
143.974422
 30
0.0
 11
247.642977
 21
143.974422
 31
0.0
  0
LINE
  5
58C
100
AcDbEntity
  8
1
370
    30
  6
Continuous
 62
     7
100
AcDbLine
 10
244.19797
 20
139.674418
 30
0.0
 11
244.19797
 21
131.674418
 31
0.0
  0
LINE
  5
58D
100
AcDbEntity
  8
1
370
    30
  6
Continuous
 62
     7
100
AcDbLine
 10
243.69797
 20
139.674418
 30
0.0
 11
243.69797
 21
131.674418
 31
0.0
  0
LINE
  5
58E
100
AcDbEntity
  8
1
370
    30
  6
Continuous
 62
     7
100
AcDbLine
 10
244.19797
 20
147.674418
 30
0.0
 11
249.19797
 21
147.674418
 31
0.0
  0
LINE
  5
58F
100
AcDbEntity
  8
1
370
    30
  6
Continuous
 62
     7
100
AcDbLine
 10
244.19797
 20
139.674418
 30
0.0
 11
244.19797
 21
147.674418
 31
0.0
  0
LINE
  5
590
100
AcDbEntity
  8
1
370
    30
  6
Continuous
 62
     7
100
AcDbLine
 10
243.69797
 20
139.674418
 30
0.0
 11
243.69797
 21
147.674418
 31
0.0
  0
LINE
  5
591
100
AcDbEntity
  8
1
370
    30
  6
Continuous
 62
     7
100
AcDbLine
 10
241.69797
 20
131.674422
 30
0.0
 11
241.69797
 21
147.674418
 31
0.0
  0
LINE
  5
592
100
AcDbEntity
  8
1
370
    30
  6
Continuous
 62
     7
100
AcDbLine
 10
249.19797
 20
131.674422
 30
0.0
 11
249.19797
 21
147.674418
 31
0.0
  0
LINE
  5
593
100
AcDbEntity
  8
1
370
    30
  6
Continuous
 62
     7
100
AcDbLine
 10
241.69797
 20
131.674422
 30
0.0
 11
243.69797
 21
131.674422
 31
0.0
  0
LINE
  5
594
100
AcDbEntity
  8
1
370
    30
  6
Continuous
 62
     7
100
AcDbLine
 10
241.69797
 20
147.674418
 30
0.0
 11
243.69797
 21
147.674418
 31
0.0
  0
LINE
  5
595
100
AcDbEntity
  8
1
370
    30
  6
Continuous
 62
     7
100
AcDbLine
 10
244.19797
 20
131.674422
 30
0.0
 11
249.19797
 21
131.674422
 31
0.0
  0
LINE
  5
596
100
AcDbEntity
  8
1
370
    30
  6
Continuous
 62
     7
100
AcDbLine
 10
241.297974
 20
132.024418
 30
0.0
 11
241.097981
 21
132.024418
 31
0.0
  0
LINE
  5
597
100
AcDbEntity
  8
1
370
    30
  6
Continuous
 62
     7
100
AcDbLine
 10
241.297974
 20
147.324418
 30
0.0
 11
241.097981
 21
147.324418
 31
0.0
  0
LINE
  5
598
100
AcDbEntity
  8
1
370
    30
  6
Continuous
 62
     7
100
AcDbLine
 10
234.947986
 20
144.907431
 30
0.0
 11
235.697987
 21
145.340444
 31
0.0
  0
LINE
  5
599
100
AcDbEntity
  8
1
370
    30
  6
Continuous
 62
     7
100
AcDbLine
 10
235.697987
 20
143.608391
 30
0.0
 11
236.447987
 21
144.041404
 31
0.0
  0
LINE
  5
59A
100
AcDbEntity
  8
1
370
    30
  6
Continuous
 62
     7
100
AcDbLine
 10
235.697987
 20
145.340442
 30
0.0
 11
236.447987
 21
144.90743
 31
0.0
  0
LINE
  5
59B
100
AcDbEntity
  8
1
370
    30
  6
Continuous
 62
     7
100
AcDbLine
 10
234.947988
 20
144.041403
 30
0.0
 11
235.697987
 21
143.608392
 31
0.0
  0
LINE
  5
59C
100
AcDbEntity
  8
1
370
    30
  6
Continuous
 62
     7
100
AcDbLine
 10
236.447985
 20
144.90743
 30
0.0
 11
236.447985
 21
144.041406
 31
0.0
  0
LINE
  5
59D
100
AcDbEntity
  8
1
370
    30
  6
Continuous
 62
     7
100
AcDbLine
 10
234.947985
 20
144.90743
 30
0.0
 11
234.947985
 21
144.041406
 31
0.0
  0
LINE
  5
59E
100
AcDbEntity
  8
1
370
    30
  6
Continuous
 62
     7
100
AcDbLine
 10
241.297974
 20
146.67442
 30
0.0
 11
241.69797
 21
146.67442
 31
0.0
  0
LINE
  5
59F
100
AcDbEntity
  8
1
370
    30
  6
Continuous
 62
     7
100
AcDbLine
 10
241.297974
 20
143.674418
 30
0.0
 11
241.69797
 21
143.674418
 31
0.0
  0
LINE
  5
5A0
100
AcDbEntity
  8
1
370
    30
  6
Continuous
 62
     7
100
AcDbLine
 10
241.297974
 20
141.174419
 30
0.0
 11
241.69797
 21
141.174419
 31
0.0
  0
LINE
  5
5A1
100
AcDbEntity
  8
1
370
    30
  6
Continuous
 62
     7
100
AcDbLine
 10
241.297974
 20
138.174417
 30
0.0
 11
241.69797
 21
138.174417
 31
0.0
  0
LINE
  5
5A2
100
AcDbEntity
  8
1
370
    30
  6
Continuous
 62
     7
100
AcDbLine
 10
241.297974
 20
135.674416
 30
0.0
 11
241.69797
 21
135.674416
 31
0.0
  0
LINE
  5
5A3
100
AcDbEntity
  8
1
370
    30
  6
Continuous
 62
     7
100
AcDbLine
 10
241.297974
 20
132.674413
 30
0.0
 11
241.69797
 21
132.674413
 31
0.0
  0
LINE
  5
5A4
100
AcDbEntity
  8
1
370
    30
  6
Continuous
 62
     7
100
AcDbLine
 10
241.097981
 20
147.324418
 30
0.0
 11
241.097981
 21
132.024418
 31
0.0
  0
LINE
  5
5A5
100
AcDbEntity
  8
1
370
    30
  6
Continuous
 62
     7
100
AcDbLine
 10
241.297974
 20
147.324418
 30
0.0
 11
241.297974
 21
132.024418
 31
0.0
  0
LINE
  5
5A6
100
AcDbEntity
  8
1
370
    30
  6
Continuous
 62
     7
100
AcDbLine
 10
240.697982
 20
146.67442
 30
0.0
 11
241.097981
 21
146.67442
 31
0.0
  0
LINE
  5
5A7
100
AcDbEntity
  8
1
370
    30
  6
Continuous
 62
     7
100
AcDbLine
 10
240.697982
 20
143.674418
 30
0.0
 11
241.097981
 21
143.674418
 31
0.0
  0
LINE
  5
5A8
100
AcDbEntity
  8
1
370
    30
  6
Continuous
 62
     7
100
AcDbLine
 10
240.697982
 20
141.174419
 30
0.0
 11
241.097981
 21
141.174419
 31
0.0
  0
LINE
  5
5A9
100
AcDbEntity
  8
1
370
    30
  6
Continuous
 62
     7
100
AcDbLine
 10
240.697982
 20
138.174417
 30
0.0
 11
241.097981
 21
138.174417
 31
0.0
  0
LINE
  5
5AA
100
AcDbEntity
  8
1
370
    30
  6
Continuous
 62
     7
100
AcDbLine
 10
240.697982
 20
135.674416
 30
0.0
 11
241.097981
 21
135.674416
 31
0.0
  0
LINE
  5
5AB
100
AcDbEntity
  8
1
370
    30
  6
Continuous
 62
     7
100
AcDbLine
 10
240.697982
 20
132.674413
 30
0.0
 11
241.097981
 21
132.674413
 31
0.0
  0
LINE
  5
5AC
100
AcDbEntity
  8
1
370
    30
  6
Continuous
 62
     7
100
AcDbLine
 10
238.197985
 20
147.674415
 30
0.0
 11
233.197985
 21
147.674415
 31
0.0
  0
LINE
  5
5AD
100
AcDbEntity
  8
1
370
    30
  6
Continuous
 62
     7
100
AcDbLine
 10
240.697982
 20
131.674419
 30
0.0
 11
233.197985
 21
131.674419
 31
0.0
  0
LINE
  5
5AE
100
AcDbEntity
  8
1
370
    30
  6
Continuous
 62
     7
100
AcDbLine
 10
240.697982
 20
147.674415
 30
0.0
 11
238.697985
 21
147.674415
 31
0.0
  0
LINE
  5
5AF
100
AcDbEntity
  8
1
370
    30
  6
Continuous
 62
     7
100
AcDbLine
 10
233.197985
 20
147.674415
 30
0.0
 11
233.197985
 21
131.674419
 31
0.0
  0
LINE
  5
5B0
100
AcDbEntity
  8
1
370
    30
  6
Continuous
 62
     7
100
AcDbLine
 10
240.697982
 20
147.674415
 30
0.0
 11
240.697982
 21
131.674419
 31
0.0
  0
LINE
  5
5B1
100
AcDbEntity
  8
1
370
    30
  6
Continuous
 62
     7
100
AcDbLine
 10
238.197985
 20
147.674415
 30
0.0
 11
238.197985
 21
134.267565
 31
0.0
  0
LINE
  5
5B2
100
AcDbEntity
  8
1
370
    30
  6
Continuous
 62
     7
100
AcDbLine
 10
238.697985
 20
147.674415
 30
0.0
 11
238.697985
 21
134.267565
 31
0.0
  0
LINE
  5
5B3
100
AcDbEntity
  8
1
370
     9
  6
CENTER
 62
     7
100
AcDbLine
 10
246.69797
 20
132.134534
 30
0.0
 11
246.69797
 21
147.70502
 31
0.0
  0
LINE
  5
5B4
100
AcDbEntity
  8
1
370
     9
  6
CENTER
 62
     7
100
AcDbLine
 10
232.197985
 20
139.674418
 30
0.0
 11
250.196032
 21
139.674418
 31
0.0
  0
LINE
  5
5B5
100
AcDbEntity
  8
1
370
     9
  6
CENTER
 62
     7
100
AcDbLine
 10
245.19797
 20
133.274424
 30
0.0
 11
248.19797
 21
133.274424
 31
0.0
  0
LINE
  5
5B6
100
AcDbEntity
  8
1
370
    30
  6
Continuous
 62
     7
100
AcDbLine
 10
209.697985
 20
114.674418
 30
0.0
 11
252.197985
 21
114.674418
 31
0.0
  0
LINE
  5
5B7
100
AcDbEntity
  8
1
370
    30
  6
Continuous
 62
     7
100
AcDbLine
 10
209.697985
 20
164.674418
 30
0.0
 11
252.197985
 21
164.674418
 31
0.0
  0
LINE
  5
5B8
100
AcDbEntity
  8
1
370
    30
  6
Continuous
 62
     7
100
AcDbLine
 10
243.69797
 20
36.674418
 30
0.0
 11
243.69797
 21
45.674418
 31
0.0
  0
LINE
  5
5B9
100
AcDbEntity
  8
1
370
    30
  6
Continuous
 62
     7
100
AcDbLine
 10
244.19797
 20
36.674418
 30
0.0
 11
244.19797
 21
45.674418
 31
0.0
  0
LINE
  5
5BA
100
AcDbEntity
  8
1
370
    30
  6
Continuous
 62
     7
100
AcDbLine
 10
241.297974
 20
45.324418
 30
0.0
 11
241.297974
 21
32.674418
 31
0.0
  0
LINE
  5
5BB
100
AcDbEntity
  8
1
370
    30
  6
Continuous
 62
     7
100
AcDbLine
 10
241.69797
 20
32.674418
 30
0.0
 11
241.69797
 21
45.674418
 31
0.0
  0
LINE
  5
5BC
100
AcDbEntity
  8
1
370
     9
  6
CENTER
 62
     7
100
AcDbLine
 10
246.69797
 20
36.609659
 30
0.0
 11
246.69797
 21
45.70502
 31
0.0
  0
ARC
  5
5BD
100
AcDbEntity
  8
1
370
    30
  6
Continuous
 62
     7
100
AcDbCircle
 10
246.172863
 20
44.074123
 30
0.0
 40
2.625106
100
AcDbArc
 50
-9.573412
 51
0.00631
  0
ARC
  5
5BE
100
AcDbEntity
  8
1
370
    30
  6
Continuous
 62
     7
100
AcDbCircle
 10
246.22601
 20
44.064592
 30
0.0
 40
2.571114
100
AcDbArc
 50
-19.310709
 51
-9.560934
  0
ARC
  5
5BF
100
AcDbEntity
  8
1
370
    30
  6
Continuous
 62
     7
100
AcDbCircle
 10
246.320761
 20
44.03084
 30
0.0
 40
2.470532
100
AcDbArc
 50
-29.44382
 51
-19.298668
  0
ARC
  5
5C0
100
AcDbEntity
  8
1
370
    30
  6
Continuous
 62
     7
100
AcDbCircle
 10
246.436727
 20
43.964886
 30
0.0
 40
2.337124
100
AcDbArc
 50
-40.15536
 51
-29.433286
  0
ARC
  5
5C1
100
AcDbEntity
  8
1
370
    30
  6
Continuous
 62
     7
100
AcDbCircle
 10
246.549041
 20
43.869787
 30
0.0
 40
2.189956
100
AcDbArc
 50
-51.592348
 51
-40.148624
  0
ARC
  5
5C2
100
AcDbEntity
  8
1
370
    30
  6
Continuous
 62
     7
100
AcDbCircle
 10
246.635216
 20
43.761125
 30
0.0
 40
2.051271
100
AcDbArc
 50
-63.802067
 51
-51.59293
  0
ARC
  5
5C3
100
AcDbEntity
  8
1
370
    30
  6
Continuous
 62
     7
100
AcDbCircle
 10
246.683199
 20
43.664501
 30
0.0
 40
1.94339
100
AcDbArc
 50
-76.686016
 51
-63.813772
  0
ARC
  5
5C4
100
AcDbEntity
  8
1
370
    30
  6
Continuous
 62
     7
100
AcDbCircle
 10
246.697525
 20
43.607158
 30
0.0
 40
1.884289
100
AcDbArc
 50
-89.986485
 51
-76.708396
  0
ARC
  5
5C5
100
AcDbEntity
  8
1
370
    30
  6
Continuous
 62
     7
100
AcDbCircle
 10
246.698417
 20
43.607182
 30
0.0
 40
1.884313
100
AcDbArc
 50
-103.310906
 51
-90.013587
  0
ARC
  5
5C6
100
AcDbEntity
  8
1
370
    30
  6
Continuous
 62
     7
100
AcDbCircle
 10
246.712812
 20
43.664717
 30
0.0
 40
1.943616
100
AcDbArc
 50
-116.236349
 51
-103.333377
  0
ARC
  5
5C7
100
AcDbEntity
  8
1
370
    30
  6
Continuous
 62
     7
100
AcDbCircle
 10
246.761047
 20
43.761651
 30
0.0
 40
2.051888
100
AcDbArc
 50
-128.471798
 51
-116.247911
  0
ARC
  5
5C8
100
AcDbEntity
  8
1
370
    30
  6
Continuous
 62
     7
100
AcDbCircle
 10
246.847488
 20
43.870396
 30
0.0
 40
2.190803
100
AcDbArc
 50
-139.918676
 51
-128.472373
  0
ARC
  5
5C9
100
AcDbEntity
  8
1
370
    30
  6
Continuous
 62
     7
100
AcDbCircle
 10
246.959948
 20
43.965404
 30
0.0
 40
2.338024
100
AcDbArc
 50
-150.632553
 51
-139.911717
  0
ARC
  5
5CA
100
AcDbEntity
  8
1
370
    30
  6
Continuous
 62
     7
100
AcDbCircle
 10
247.07585
 20
44.031147
 30
0.0
 40
2.471272
100
AcDbArc
 50
-160.760513
 51
-150.622013
  0
ARC
  5
5CB
100
AcDbEntity
  8
1
370
    30
  6
Continuous
 62
     7
100
AcDbCircle
 10
247.170355
 20
44.064704
 30
0.0
 40
2.571557
100
AcDbArc
 50
-170.490706
 51
-160.748447
  0
ARC
  5
5CC
100
AcDbEntity
  8
1
370
    30
  6
Continuous
 62
     7
100
AcDbCircle
 10
247.223159
 20
44.074124
 30
0.0
 40
2.625192
100
AcDbArc
 50
179.993706
 51
-170.478326
  0
ARC
  5
5CD
100
AcDbEntity
  8
1
370
    30
  6
Continuous
 62
     7
100
AcDbCircle
 10
245.258507
 20
44.06842
 30
0.0
 40
0.660586
100
AcDbArc
 50
151.127059
 51
179.297145
  0
ARC
  5
5CE
100
AcDbEntity
  8
1
370
    30
  6
Continuous
 62
     7
100
AcDbCircle
 10
245.54454
 20
43.909583
 30
0.0
 40
0.987761
100
AcDbArc
 50
132.203608
 51
151.070453
  0
ARC
  5
5CF
100
AcDbEntity
  8
1
370
    30
  6
Continuous
 62
     7
100
AcDbCircle
 10
245.917649
 20
43.508326
 30
0.0
 40
1.535655
100
AcDbArc
 50
120.353247
 51
132.458557
  0
ARC
  5
5D0
100
AcDbEntity
  8
1
370
    30
  6
Continuous
 62
     7
100
AcDbCircle
 10
246.242993
 20
42.963426
 30
0.0
 40
2.170277
100
AcDbArc
 50
111.931383
 51
120.495645
  0
ARC
  5
5D1
100
AcDbEntity
  8
1
370
    30
  6
Continuous
 62
     7
100
AcDbCircle
 10
246.476477
 20
42.392589
 30
0.0
 40
2.78701
100
AcDbArc
 50
105.304526
 51
112.000905
  0
ARC
  5
5D2
100
AcDbEntity
  8
1
370
    30
  6
Continuous
 62
     7
100
AcDbCircle
 10
246.616255
 20
41.890248
 30
0.0
 40
3.308432
100
AcDbArc
 50
99.718707
 51
105.34312
  0
ARC
  5
5D3
100
AcDbEntity
  8
1
370
    30
  6
Continuous
 62
     7
100
AcDbCircle
 10
246.680618
 20
41.52342
 30
0.0
 40
3.68086
100
AcDbArc
 50
94.69824
 51
99.742287
  0
ARC
  5
5D4
100
AcDbEntity
  8
1
370
    30
  6
Continuous
 62
     7
100
AcDbCircle
 10
246.697507
 20
41.331937
 30
0.0
 40
3.873083
100
AcDbArc
 50
89.926723
 51
94.715229
  0
ARC
  5
5D5
100
AcDbEntity
  8
1
370
    30
  6
Continuous
 62
     7
100
AcDbCircle
 10
246.69854
 20
41.334809
 30
0.0
 40
3.870211
100
AcDbArc
 50
85.138958
 51
89.94196
  0
ARC
  5
5D6
100
AcDbEntity
  8
1
370
    30
  6
Continuous
 62
     7
100
AcDbCircle
 10
246.716432
 20
41.53221
 30
0.0
 40
3.672004
100
AcDbArc
 50
80.094716
 51
85.156115
  0
ARC
  5
5D7
100
AcDbEntity
  8
1
370
    30
  6
Continuous
 62
     7
100
AcDbCircle
 10
246.782698
 20
41.903783
 30
0.0
 40
3.294571
100
AcDbArc
 50
74.477874
 51
80.118375
  0
ARC
  5
5D8
100
AcDbEntity
  8
1
370
    30
  6
Continuous
 62
     7
100
AcDbCircle
 10
246.924257
 20
42.406673
 30
0.0
 40
2.77214
100
AcDbArc
 50
67.830962
 51
74.515439
  0
ARC
  5
5D9
100
AcDbEntity
  8
1
370
    30
  6
Continuous
 62
     7
100
AcDbCircle
 10
247.159053
 20
42.975818
 30
0.0
 40
2.156473
100
AcDbArc
 50
59.296617
 51
67.902094
  0
ARC
  5
5DA
100
AcDbEntity
  8
1
370
    30
  6
Continuous
 62
     7
100
AcDbCircle
 10
247.485337
 20
43.517839
 30
0.0
 40
1.523838
100
AcDbArc
 50
47.282828
 51
59.439245
  0
ARC
  5
5DB
100
AcDbEntity
  8
1
370
    30
  6
Continuous
 62
     7
100
AcDbCircle
 10
247.856734
 20
43.913711
 30
0.0
 40
0.981047
100
AcDbArc
 50
28.665966
 51
47.535039
  0
ARC
  5
5DC
100
AcDbEntity
  8
1
370
    30
  6
Continuous
 62
     7
100
AcDbCircle
 10
248.138892
 20
44.06875
 30
0.0
 40
0.659101
100
AcDbArc
 50
0.492263
 51
28.6065
  0
ARC
  5
5DD
100
AcDbEntity
  8
1
370
    30
  6
Continuous
 62
     7
100
AcDbCircle
 10
243.94797
 20
43.581273
 30
0.0
 40
0.25
100
AcDbArc
 50
179.99999
 51
0.00001
  0
ARC
  5
5DE
100
AcDbEntity
  8
1
370
    30
  6
Continuous
 62
     7
100
AcDbCircle
 10
238.447985
 20
32.267565
 30
0.0
 40
0.25
100
AcDbArc
 50
179.99999
 51
0.00001
  0
CIRCLE
  5
5DF
100
AcDbEntity
  8
1
370
    30
  6
Continuous
 62
     7
100
AcDbCircle
 10
235.697985
 20
42.474418
 30
0.0
 40
1.99
  0
LINE
  5
5E0
100
AcDbEntity
  8
1
370
    30
  6
Continuous
 62
     7
100
AcDbLine
 10
244.19797
 20
37.424418
 30
0.0
 11
249.19797
 21
37.424418
 31
0.0
  0
LINE
  5
5E1
100
AcDbEntity
  8
1
370
    30
  6
Continuous
 62
     7
100
AcDbLine
 10
244.19797
 20
37.924418
 30
0.0
 11
249.19797
 21
37.924418
 31
0.0
  0
LINE
  5
5E2
100
AcDbEntity
  8
1
370
    30
  6
Continuous
 62
     7
100
AcDbLine
 10
245.752959
 20
41.974422
 30
0.0
 11
247.642977
 21
41.974422
 31
0.0
  0
LINE
  5
5E3
100
AcDbEntity
  8
1
370
    30
  6
Continuous
 62
     7
100
AcDbLine
 10
244.19797
 20
45.674418
 30
0.0
 11
249.19797
 21
45.674418
 31
0.0
  0
LINE
  5
5E4
100
AcDbEntity
  8
1
370
    30
  6
Continuous
 62
     7
100
AcDbLine
 10
241.69797
 20
45.674418
 30
0.0
 11
243.69797
 21
45.674418
 31
0.0
  0
LINE
  5
5E5
100
AcDbEntity
  8
1
370
    30
  6
Continuous
 62
     7
100
AcDbLine
 10
241.297974
 20
45.324418
 30
0.0
 11
241.097981
 21
45.324418
 31
0.0
  0
LINE
  5
5E6
100
AcDbEntity
  8
1
370
    30
  6
Continuous
 62
     7
100
AcDbLine
 10
234.947986
 20
42.907431
 30
0.0
 11
235.697987
 21
43.340444
 31
0.0
  0
LINE
  5
5E7
100
AcDbEntity
  8
1
370
    30
  6
Continuous
 62
     7
100
AcDbLine
 10
235.697987
 20
41.608391
 30
0.0
 11
236.447987
 21
42.041404
 31
0.0
  0
LINE
  5
5E8
100
AcDbEntity
  8
1
370
    30
  6
Continuous
 62
     7
100
AcDbLine
 10
235.697987
 20
43.340442
 30
0.0
 11
236.447987
 21
42.90743
 31
0.0
  0
LINE
  5
5E9
100
AcDbEntity
  8
1
370
    30
  6
Continuous
 62
     7
100
AcDbLine
 10
234.947988
 20
42.041403
 30
0.0
 11
235.697987
 21
41.608392
 31
0.0
  0
LINE
  5
5EA
100
AcDbEntity
  8
1
370
    30
  6
Continuous
 62
     7
100
AcDbLine
 10
236.447985
 20
42.90743
 30
0.0
 11
236.447985
 21
42.041406
 31
0.0
  0
LINE
  5
5EB
100
AcDbEntity
  8
1
370
    30
  6
Continuous
 62
     7
100
AcDbLine
 10
234.947985
 20
42.90743
 30
0.0
 11
234.947985
 21
42.041406
 31
0.0
  0
LINE
  5
5EC
100
AcDbEntity
  8
1
370
    30
  6
Continuous
 62
     7
100
AcDbLine
 10
241.297974
 20
44.67442
 30
0.0
 11
241.69797
 21
44.67442
 31
0.0
  0
LINE
  5
5ED
100
AcDbEntity
  8
1
370
    30
  6
Continuous
 62
     7
100
AcDbLine
 10
241.297974
 20
41.674418
 30
0.0
 11
241.69797
 21
41.674418
 31
0.0
  0
LINE
  5
5EE
100
AcDbEntity
  8
1
370
    30
  6
Continuous
 62
     7
100
AcDbLine
 10
241.297974
 20
39.174419
 30
0.0
 11
241.69797
 21
39.174419
 31
0.0
  0
LINE
  5
5EF
100
AcDbEntity
  8
1
370
    30
  6
Continuous
 62
     7
100
AcDbLine
 10
241.297974
 20
36.174417
 30
0.0
 11
241.69797
 21
36.174417
 31
0.0
  0
LINE
  5
5F0
100
AcDbEntity
  8
1
370
    30
  6
Continuous
 62
     7
100
AcDbLine
 10
241.297974
 20
33.674416
 30
0.0
 11
241.69797
 21
33.674416
 31
0.0
  0
LINE
  5
5F1
100
AcDbEntity
  8
1
370
    30
  6
Continuous
 62
     7
100
AcDbLine
 10
240.697982
 20
44.67442
 30
0.0
 11
241.097981
 21
44.67442
 31
0.0
  0
LINE
  5
5F2
100
AcDbEntity
  8
1
370
    30
  6
Continuous
 62
     7
100
AcDbLine
 10
240.697982
 20
41.674418
 30
0.0
 11
241.097981
 21
41.674418
 31
0.0
  0
LINE
  5
5F3
100
AcDbEntity
  8
1
370
    30
  6
Continuous
 62
     7
100
AcDbLine
 10
240.697982
 20
39.174419
 30
0.0
 11
241.097981
 21
39.174419
 31
0.0
  0
LINE
  5
5F4
100
AcDbEntity
  8
1
370
    30
  6
Continuous
 62
     7
100
AcDbLine
 10
240.697982
 20
36.174417
 30
0.0
 11
241.097981
 21
36.174417
 31
0.0
  0
LINE
  5
5F5
100
AcDbEntity
  8
1
370
    30
  6
Continuous
 62
     7
100
AcDbLine
 10
240.697982
 20
33.674416
 30
0.0
 11
241.097981
 21
33.674416
 31
0.0
  0
LINE
  5
5F6
100
AcDbEntity
  8
1
370
    30
  6
Continuous
 62
     7
100
AcDbLine
 10
238.197985
 20
45.674415
 30
0.0
 11
233.197985
 21
45.674415
 31
0.0
  0
LINE
  5
5F7
100
AcDbEntity
  8
1
370
    30
  6
Continuous
 62
     7
100
AcDbLine
 10
240.697982
 20
45.674415
 30
0.0
 11
238.697985
 21
45.674415
 31
0.0
  0
LINE
  5
5F8
100
AcDbEntity
  8
1
370
    30
  6
Continuous
 62
     7
100
AcDbLine
 10
233.197985
 20
45.674415
 30
0.0
 11
233.197985
 21
29.674419
 31
0.0
  0
LINE
  5
5F9
100
AcDbEntity
  8
1
370
    30
  6
Continuous
 62
     7
100
AcDbLine
 10
238.197985
 20
45.674415
 30
0.0
 11
238.197985
 21
32.267565
 31
0.0
  0
LINE
  5
5FA
100
AcDbEntity
  8
1
370
    30
  6
Continuous
 62
     7
100
AcDbLine
 10
238.697985
 20
45.674415
 30
0.0
 11
238.697985
 21
32.267565
 31
0.0
  0
LINE
  5
5FB
100
AcDbEntity
  8
1
370
     9
  6
CENTER
 62
     7
100
AcDbLine
 10
54.697985
 20
145.674418
 30
0.0
 11
54.697985
 21
133.674418
 31
0.0
  0
LINE
  5
5FC
100
AcDbEntity
  8
1
370
     9
  6
DOT
 62
     7
100
AcDbLine
 10
209.697985
 20
144.424418
 30
0.0
 11
209.697985
 21
134.924418
 31
0.0
  0
LINE
  5
5FD
100
AcDbEntity
  8
1
370
     9
  6
CENTER
 62
     7
100
AcDbLine
 10
322.451361
 20
139.674418
 30
0.0
 11
148.782051
 21
139.674418
 31
0.0
  0
LINE
  5
5FE
100
AcDbEntity
  8
1
370
    30
  6
Continuous
 62
     7
100
AcDbLine
 10
58.697985
 20
147.674418
 30
0.0
 11
59.697985
 21
146.674418
 31
0.0
  0
LINE
  5
5FF
100
AcDbEntity
  8
1
370
    30
  6
Continuous
 62
     7
100
AcDbLine
 10
59.697985
 20
146.674418
 30
0.0
 11
59.697985
 21
132.674418
 31
0.0
  0
LINE
  5
600
100
AcDbEntity
  8
1
370
    30
  6
Continuous
 62
     7
100
AcDbLine
 10
58.697985
 20
131.674418
 30
0.0
 11
59.697985
 21
132.674418
 31
0.0
  0
LINE
  5
601
100
AcDbEntity
  8
1
370
    30
  6
Continuous
 62
     7
100
AcDbLine
 10
44.697985
 20
131.674418
 30
0.0
 11
58.697985
 21
131.674418
 31
0.0
  0
LINE
  5
602
100
AcDbEntity
  8
1
370
    30
  6
Continuous
 62
     7
100
AcDbLine
 10
44.697985
 20
147.674418
 30
0.0
 11
58.697985
 21
147.674418
 31
0.0
  0
LINE
  5
603
100
AcDbEntity
  8
1
370
    30
  6
Continuous
 62
     7
100
AcDbLine
 10
59.197985
 20
132.174418
 30
0.0
 11
61.697985
 21
132.174418
 31
0.0
  0
LINE
  5
604
100
AcDbEntity
  8
1
370
    30
  6
Continuous
 62
     7
100
AcDbLine
 10
59.197985
 20
147.174418
 30
0.0
 11
61.697985
 21
147.174418
 31
0.0
  0
LINE
  5
605
100
AcDbEntity
  8
1
370
    30
  6
Continuous
 62
     7
100
AcDbLine
 10
44.697985
 20
147.674418
 30
0.0
 11
44.697985
 21
131.674418
 31
0.0
  0
LINE
  5
606
100
AcDbEntity
  8
1
370
    30
  6
Continuous
 62
     7
100
AcDbLine
 10
63.247985
 20
102.674418
 30
0.0
 11
62.947985
 21
102.974418
 31
0.0
  0
LINE
  5
607
100
AcDbEntity
  8
1
370
    30
  6
Continuous
 62
     7
100
AcDbLine
 10
68.147985
 20
102.674418
 30
0.0
 11
68.447985
 21
102.974418
 31
0.0
  0
LINE
  5
608
100
AcDbEntity
  8
1
370
    30
  6
Continuous
 62
     7
100
AcDbLine
 10
68.447985
 20
102.974418
 30
0.0
 11
62.947985
 21
102.974418
 31
0.0
  0
LINE
  5
609
100
AcDbEntity
  8
1
370
    30
  6
Continuous
 62
     7
100
AcDbLine
 10
68.147985
 20
102.674418
 30
0.0
 11
63.247985
 21
102.674418
 31
0.0
  0
LINE
  5
60A
100
AcDbEntity
  8
1
370
    30
  6
Continuous
 62
     7
100
AcDbLine
 10
62.947985
 20
102.974418
 30
0.0
 11
62.947985
 21
105.674418
 31
0.0
  0
LINE
  5
60B
100
AcDbEntity
  8
1
370
    30
  6
Continuous
 62
     7
100
AcDbLine
 10
68.447985
 20
102.974418
 30
0.0
 11
68.447985
 21
105.674418
 31
0.0
  0
LINE
  5
60C
100
AcDbEntity
  8
1
370
    30
  6
Continuous
 62
     7
100
AcDbLine
 10
62.697985
 20
105.674418
 30
0.0
 11
68.697985
 21
105.674418
 31
0.0
  0
LINE
  5
60D
100
AcDbEntity
  8
1
370
    30
  6
Continuous
 62
     7
100
AcDbLine
 10
62.697985
 20
102.174418
 30
0.0
 11
62.697985
 21
109.674418
 31
0.0
  0
LINE
  5
60E
100
AcDbEntity
  8
1
370
    30
  6
Continuous
 62
     7
100
AcDbLine
 10
68.697985
 20
109.674418
 30
0.0
 11
68.697985
 21
102.174418
 31
0.0
  0
LINE
  5
60F
100
AcDbEntity
  8
1
370
    30
  6
Continuous
 62
     7
100
AcDbLine
 10
41.697985
 20
92.674418
 30
0.0
 11
67.697985
 21
92.674418
 31
0.0
  0
LINE
  5
610
100
AcDbEntity
  8
1
370
    30
  6
Continuous
 62
     7
100
AcDbLine
 10
67.697985
 20
97.174418
 30
0.0
 11
67.697985
 21
92.674418
 31
0.0
  0
LINE
  5
611
100
AcDbEntity
  8
1
370
    30
  6
Continuous
 62
     7
100
AcDbLine
 10
66.697985
 20
97.174418
 30
0.0
 11
66.697985
 21
93.674418
 31
0.0
  0
LINE
  5
612
100
AcDbEntity
  8
1
370
    30
  6
Continuous
 62
     7
100
AcDbLine
 10
42.697985
 20
93.674418
 30
0.0
 11
66.697985
 21
93.674418
 31
0.0
  0
LINE
  5
613
100
AcDbEntity
  8
1
370
    30
  6
Continuous
 62
     7
100
AcDbLine
 10
68.697985
 20
102.174418
 30
0.0
 11
68.697985
 21
101.174418
 31
0.0
  0
LINE
  5
614
100
AcDbEntity
  8
1
370
    30
  6
Continuous
 62
     7
100
AcDbLine
 10
68.697985
 20
102.174418
 30
0.0
 11
58.197985
 21
102.174418
 31
0.0
  0
LINE
  5
615
100
AcDbEntity
  8
1
370
    30
  6
Continuous
 62
     7
100
AcDbLine
 10
68.447985
 20
98.474418
 30
0.0
 11
68.447985
 21
101.174418
 31
0.0
  0
LINE
  5
616
100
AcDbEntity
  8
1
370
    30
  6
Continuous
 62
     7
100
AcDbLine
 10
62.947985
 20
98.474418
 30
0.0
 11
62.947985
 21
101.174418
 31
0.0
  0
LINE
  5
617
100
AcDbEntity
  8
1
370
    30
  6
Continuous
 62
     7
100
AcDbLine
 10
68.147985
 20
98.174418
 30
0.0
 11
63.247985
 21
98.174418
 31
0.0
  0
LINE
  5
618
100
AcDbEntity
  8
1
370
    30
  6
Continuous
 62
     7
100
AcDbLine
 10
68.447985
 20
98.474418
 30
0.0
 11
62.947985
 21
98.474418
 31
0.0
  0
LINE
  5
619
100
AcDbEntity
  8
1
370
    30
  6
Continuous
 62
     7
100
AcDbLine
 10
68.147985
 20
98.174418
 30
0.0
 11
68.447985
 21
98.474418
 31
0.0
  0
LINE
  5
61A
100
AcDbEntity
  8
1
370
    30
  6
Continuous
 62
     7
100
AcDbLine
 10
63.247985
 20
98.174418
 30
0.0
 11
62.947985
 21
98.474418
 31
0.0
  0
LINE
  5
61B
100
AcDbEntity
  8
1
370
    30
  6
Continuous
 62
     7
100
AcDbLine
 10
66.697985
 20
97.174418
 30
0.0
 11
67.697985
 21
97.174418
 31
0.0
  0
LINE
  5
61C
100
AcDbEntity
  8
1
370
    30
  6
Continuous
 62
     7
100
AcDbLine
 10
68.697985
 20
101.174418
 30
0.0
 11
62.697985
 21
101.174418
 31
0.0
  0
LINE
  5
61D
100
AcDbEntity
  8
1
370
    30
  6
Continuous
 62
     7
100
AcDbLine
 10
57.697985
 20
94.674418
 30
0.0
 11
57.697985
 21
93.674418
 31
0.0
  0
LINE
  5
61E
100
AcDbEntity
  8
1
370
     9
  6
CENTER
 62
     7
100
AcDbLine
 10
54.697985
 20
96.116616
 30
0.0
 11
54.697985
 21
90.060879
 31
0.0
  0
LINE
  5
61F
100
AcDbEntity
  8
1
370
    30
  6
Continuous
 62
     7
100
AcDbLine
 10
42.697985
 20
104.674418
 30
0.0
 11
42.697985
 21
93.674418
 31
0.0
  0
LINE
  5
620
100
AcDbEntity
  8
1
370
    30
  6
Continuous
 62
     7
100
AcDbLine
 10
41.697985
 20
104.674418
 30
0.0
 11
42.697985
 21
104.674418
 31
0.0
  0
LINE
  5
621
100
AcDbEntity
  8
1
370
    30
  6
Continuous
 62
     7
100
AcDbLine
 10
41.697985
 20
104.674418
 30
0.0
 11
41.697985
 21
92.674418
 31
0.0
  0
LINE
  5
622
100
AcDbEntity
  8
1
370
    30
  6
Continuous
 62
     7
100
AcDbLine
 10
58.197985
 20
102.174418
 30
0.0
 11
58.197985
 21
101.174418
 31
0.0
  0
LINE
  5
623
100
AcDbEntity
  8
1
370
    30
  6
Continuous
 62
     7
100
AcDbLine
 10
58.197985
 20
101.174418
 30
0.0
 11
63.697985
 21
101.174418
 31
0.0
  0
LINE
  5
624
100
AcDbEntity
  8
1
370
     9
  6
CENTER
 62
     7
100
AcDbLine
 10
57.197985
 20
108.869644
 30
0.0
 11
57.197985
 21
94.841
 31
0.0
  0
LINE
  5
625
100
AcDbEntity
  8
1
370
     9
  6
CENTER
 62
     7
100
AcDbLine
 10
59.197985
 20
108.652986
 30
0.0
 11
59.197985
 21
94.841
 31
0.0
  0
LINE
  5
626
100
AcDbEntity
  8
1
370
    30
  6
Continuous
 62
     7
100
AcDbLine
 10
59.697985
 20
95.424418
 30
0.0
 11
49.697985
 21
95.424418
 31
0.0
  0
LINE
  5
627
100
AcDbEntity
  8
1
370
    30
  6
Continuous
 62
     7
100
AcDbLine
 10
61.697985
 20
95.424418
 30
0.0
 11
60.767083
 21
95.424418
 31
0.0
  0
LINE
  5
628
100
AcDbEntity
  8
1
370
    30
  6
Continuous
 62
     7
100
AcDbLine
 10
59.697985
 20
100.174418
 30
0.0
 11
51.697985
 21
100.174418
 31
0.0
  0
LINE
  5
629
100
AcDbEntity
  8
1
370
    30
  6
Continuous
 62
     7
100
AcDbLine
 10
61.697985
 20
100.174418
 30
0.0
 11
60.604589
 21
100.174418
 31
0.0
  0
LINE
  5
62A
100
AcDbEntity
  8
1
370
    30
  6
Continuous
 62
     7
100
AcDbLine
 10
59.697985
 20
103.174418
 30
0.0
 11
51.697985
 21
103.174418
 31
0.0
  0
LINE
  5
62B
100
AcDbEntity
  8
1
370
    30
  6
Continuous
 62
     7
100
AcDbLine
 10
61.697985
 20
103.174418
 30
0.0
 11
60.604589
 21
103.174418
 31
0.0
  0
LINE
  5
62C
100
AcDbEntity
  8
1
370
    30
  6
Continuous
 62
     7
100
AcDbLine
 10
59.697985
 20
107.924418
 30
0.0
 11
49.697985
 21
107.924418
 31
0.0
  0
LINE
  5
62D
100
AcDbEntity
  8
1
370
    30
  6
Continuous
 62
     7
100
AcDbLine
 10
61.697985
 20
107.924418
 30
0.0
 11
60.604589
 21
107.924418
 31
0.0
  0
LINE
  5
62E
100
AcDbEntity
  8
1
370
    30
  6
Continuous
 62
     7
100
AcDbLine
 10
61.697985
 20
100.174418
 30
0.0
 11
61.697985
 21
95.424418
 31
0.0
  0
LINE
  5
62F
100
AcDbEntity
  8
1
370
    30
  6
Continuous
 62
     7
100
AcDbLine
 10
61.697985
 20
107.924418
 30
0.0
 11
61.697985
 21
103.174418
 31
0.0
  0
LINE
  5
630
100
AcDbEntity
  8
1
370
    30
  6
Continuous
 62
     7
100
AcDbLine
 10
59.697985
 20
100.174418
 30
0.0
 11
59.697985
 21
95.424418
 31
0.0
  0
LINE
  5
631
100
AcDbEntity
  8
1
370
    30
  6
Continuous
 62
     7
100
AcDbLine
 10
59.697985
 20
107.924418
 30
0.0
 11
59.697985
 21
103.174418
 31
0.0
  0
LINE
  5
632
100
AcDbEntity
  8
1
370
    30
  6
Continuous
 62
     7
100
AcDbLine
 10
51.697985
 20
103.174418
 30
0.0
 11
51.697985
 21
100.174418
 31
0.0
  0
LINE
  5
633
100
AcDbEntity
  8
1
370
    30
  6
Continuous
 62
     7
100
AcDbLine
 10
49.697985
 20
109.174418
 30
0.0
 11
49.697985
 21
94.674418
 31
0.0
  0
LINE
  5
634
100
AcDbEntity
  8
1
370
    30
  6
Continuous
 62
     7
100
AcDbLine
 10
49.697985
 20
109.174418
 30
0.0
 11
47.697985
 21
109.174418
 31
0.0
  0
LINE
  5
635
100
AcDbEntity
  8
1
370
    30
  6
Continuous
 62
     7
100
AcDbLine
 10
47.697985
 20
94.674418
 30
0.0
 11
47.697985
 21
109.174418
 31
0.0
  0
LINE
  5
636
100
AcDbEntity
  8
1
370
    30
  6
Continuous
 62
     7
100
AcDbLine
 10
49.697985
 20
107.424418
 30
0.0
 11
47.697985
 21
107.424418
 31
0.0
  0
LINE
  5
637
100
AcDbEntity
  8
1
370
    30
  6
Continuous
 62
     7
100
AcDbLine
 10
49.697985
 20
95.924418
 30
0.0
 11
47.697985
 21
95.924418
 31
0.0
  0
LINE
  5
638
100
AcDbEntity
  8
1
370
    30
  6
Continuous
 62
     7
100
AcDbLine
 10
41.247985
 20
105.674418
 30
0.0
 11
40.947985
 21
105.974418
 31
0.0
  0
LINE
  5
639
100
AcDbEntity
  8
1
370
    30
  6
Continuous
 62
     7
100
AcDbLine
 10
46.147985
 20
105.674418
 30
0.0
 11
46.447985
 21
105.974418
 31
0.0
  0
LINE
  5
63A
100
AcDbEntity
  8
1
370
    30
  6
Continuous
 62
     7
100
AcDbLine
 10
46.447985
 20
105.974418
 30
0.0
 11
40.947985
 21
105.974418
 31
0.0
  0
LINE
  5
63B
100
AcDbEntity
  8
1
370
    30
  6
Continuous
 62
     7
100
AcDbLine
 10
46.147985
 20
105.674418
 30
0.0
 11
41.247985
 21
105.674418
 31
0.0
  0
LINE
  5
63C
100
AcDbEntity
  8
1
370
    30
  6
Continuous
 62
     7
100
AcDbLine
 10
40.947985
 20
105.974418
 30
0.0
 11
40.947985
 21
108.674418
 31
0.0
  0
LINE
  5
63D
100
AcDbEntity
  8
1
370
    30
  6
Continuous
 62
     7
100
AcDbLine
 10
46.447985
 20
105.974418
 30
0.0
 11
46.447985
 21
108.674418
 31
0.0
  0
LINE
  5
63E
100
AcDbEntity
  8
1
370
     9
  6
CENTER
 62
     7
100
AcDbLine
 10
70.216769
 20
101.674418
 30
0.0
 11
39.884564
 21
101.674418
 31
0.0
  0
LINE
  5
63F
100
AcDbEntity
  8
1
370
     9
  6
CENTER
 62
     7
100
AcDbLine
 10
43.697985
 20
112.424418
 30
0.0
 11
43.697985
 21
106.648894
 31
0.0
  0
LINE
  5
640
100
AcDbEntity
  8
1
370
    30
  6
Continuous
 62
     7
100
AcDbLine
 10
40.697985
 20
109.674418
 30
0.0
 11
40.697985
 21
108.674418
 31
0.0
  0
LINE
  5
641
100
AcDbEntity
  8
1
370
    30
  6
Continuous
 62
     7
100
AcDbLine
 10
46.697985
 20
108.674418
 30
0.0
 11
40.697985
 21
108.674418
 31
0.0
  0
LINE
  5
642
100
AcDbEntity
  8
1
370
    30
  6
Continuous
 62
     7
100
AcDbLine
 10
46.697985
 20
108.674418
 30
0.0
 11
46.697985
 21
93.674418
 31
0.0
  0
LINE
  5
643
100
AcDbEntity
  8
1
370
    30
  6
Continuous
 62
     7
100
AcDbLine
 10
57.697985
 20
94.674418
 30
0.0
 11
47.697985
 21
94.674418
 31
0.0
  0
LINE
  5
644
100
AcDbEntity
  8
1
370
    30
  6
Continuous
 62
     7
100
AcDbLine
 10
47.697985
 20
109.674418
 30
0.0
 11
47.697985
 21
94.674418
 31
0.0
  0
LINE
  5
645
100
AcDbEntity
  8
1
370
     9
  6
CENTER
 62
     7
100
AcDbLine
 10
224.697985
 20
139.674418
 30
0.0
 11
231.839671
 21
139.674418
 31
0.0
  0
LINE
  5
646
100
AcDbEntity
  8
1
370
     9
  6
CENTER
 62
     7
100
AcDbLine
 10
228.397985
 20
137.667277
 30
0.0
 11
228.397985
 21
141.667277
 31
0.0
  0
LINE
  5
647
100
AcDbEntity
  8
1
370
    30
  6
Continuous
 62
     7
100
AcDbLine
 10
230.697985
 20
132.424418
 30
0.0
 11
230.697985
 21
146.924418
 31
0.0
  0
LINE
  5
648
100
AcDbEntity
  8
1
370
    30
  6
Continuous
 62
     7
100
AcDbLine
 10
230.697985
 20
146.924418
 30
0.0
 11
226.697985
 21
146.924418
 31
0.0
  0
LINE
  5
649
100
AcDbEntity
  8
1
370
    30
  6
Continuous
 62
     7
100
AcDbLine
 10
226.697985
 20
132.424418
 30
0.0
 11
226.697985
 21
146.924418
 31
0.0
  0
LINE
  5
64A
100
AcDbEntity
  8
1
370
    30
  6
Continuous
 62
     7
100
AcDbLine
 10
226.697985
 20
144.674418
 30
0.0
 11
225.697985
 21
144.674418
 31
0.0
  0
LINE
  5
64B
100
AcDbEntity
  8
1
370
    30
  6
Continuous
 62
     7
100
AcDbLine
 10
225.697985
 20
134.674418
 30
0.0
 11
225.697985
 21
144.674418
 31
0.0
  0
LINE
  5
64C
100
AcDbEntity
  8
1
370
    30
  6
Continuous
 62
     7
100
AcDbLine
 10
226.697985
 20
134.674418
 30
0.0
 11
225.697985
 21
134.674418
 31
0.0
  0
LINE
  5
64D
100
AcDbEntity
  8
1
370
    30
  6
Continuous
 62
     7
100
AcDbLine
 10
230.697985
 20
132.424418
 30
0.0
 11
226.697985
 21
132.424418
 31
0.0
  0
LINE
  5
64E
100
AcDbEntity
  8
1
370
    30
  6
Continuous
 62
     7
100
AcDbLine
 10
214.697985
 20
124.174418
 30
0.0
 11
209.697985
 21
124.174418
 31
0.0
  0
LINE
  5
64F
100
AcDbEntity
  8
1
370
    30
  6
Continuous
 62
     7
100
AcDbLine
 10
214.697985
 20
155.174418
 30
0.0
 11
209.697985
 21
155.174418
 31
0.0
  0
LINE
  5
650
100
AcDbEntity
  8
1
370
    30
  6
Continuous
 62
     7
100
AcDbLine
 10
214.697985
 20
114.674418
 30
0.0
 11
214.697985
 21
124.174418
 31
0.0
  0
LINE
  5
651
100
AcDbEntity
  8
1
370
    30
  6
Continuous
 62
     7
100
AcDbLine
 10
214.697985
 20
155.174418
 30
0.0
 11
214.697985
 21
164.674418
 31
0.0
  0
ARC
  5
652
100
AcDbEntity
  8
1
370
    30
  6
Continuous
 62
     7
100
AcDbCircle
 10
229.697985
 20
147.674418
 30
0.0
 40
5.0
100
AcDbArc
 50
90.0
 51
143.130102
  0
ARC
  5
653
100
AcDbEntity
  8
1
370
    30
  6
Continuous
 62
     7
100
AcDbCircle
 10
229.697985
 20
131.674418
 30
0.0
 40
5.0
100
AcDbArc
 50
-143.130102
 51
-90.0
  0
LINE
  5
654
100
AcDbEntity
  8
1
370
    30
  6
Continuous
 62
     7
100
AcDbLine
 10
214.697985
 20
121.424418
 30
0.0
 11
217.397985
 21
121.424418
 31
0.0
  0
LINE
  5
655
100
AcDbEntity
  8
1
370
    30
  6
Continuous
 62
     7
100
AcDbLine
 10
217.397985
 20
121.424418
 30
0.0
 11
217.697985
 21
121.124418
 31
0.0
  0
LINE
  5
656
100
AcDbEntity
  8
1
370
    30
  6
Continuous
 62
     7
100
AcDbLine
 10
217.697985
 20
121.124418
 30
0.0
 11
217.697985
 21
116.224418
 31
0.0
  0
LINE
  5
657
100
AcDbEntity
  8
1
370
    30
  6
Continuous
 62
     7
100
AcDbLine
 10
214.697985
 20
115.924418
 30
0.0
 11
217.397985
 21
115.924418
 31
0.0
  0
LINE
  5
658
100
AcDbEntity
  8
1
370
    30
  6
Continuous
 62
     7
100
AcDbLine
 10
217.697985
 20
116.224418
 30
0.0
 11
217.397985
 21
115.924418
 31
0.0
  0
LINE
  5
659
100
AcDbEntity
  8
1
370
    30
  6
Continuous
 62
     7
100
AcDbLine
 10
217.397985
 20
121.424418
 30
0.0
 11
217.397985
 21
115.924418
 31
0.0
  0
LINE
  5
65A
100
AcDbEntity
  8
1
370
    30
  6
Continuous
 62
     7
100
AcDbLine
 10
214.697985
 20
163.424418
 30
0.0
 11
217.397985
 21
163.424418
 31
0.0
  0
LINE
  5
65B
100
AcDbEntity
  8
1
370
    30
  6
Continuous
 62
     7
100
AcDbLine
 10
217.397985
 20
163.424418
 30
0.0
 11
217.697985
 21
163.124418
 31
0.0
  0
LINE
  5
65C
100
AcDbEntity
  8
1
370
    30
  6
Continuous
 62
     7
100
AcDbLine
 10
217.697985
 20
163.124418
 30
0.0
 11
217.697985
 21
158.224418
 31
0.0
  0
LINE
  5
65D
100
AcDbEntity
  8
1
370
    30
  6
Continuous
 62
     7
100
AcDbLine
 10
214.697985
 20
157.924418
 30
0.0
 11
217.397985
 21
157.924418
 31
0.0
  0
LINE
  5
65E
100
AcDbEntity
  8
1
370
    30
  6
Continuous
 62
     7
100
AcDbLine
 10
217.697985
 20
158.224418
 30
0.0
 11
217.397985
 21
157.924418
 31
0.0
  0
LINE
  5
65F
100
AcDbEntity
  8
1
370
    30
  6
Continuous
 62
     7
100
AcDbLine
 10
217.397985
 20
163.424418
 30
0.0
 11
217.397985
 21
157.924418
 31
0.0
  0
LINE
  5
660
100
AcDbEntity
  8
1
370
     9
  6
CENTER
 62
     7
100
AcDbLine
 10
218.866964
 20
118.674418
 30
0.0
 11
206.614221
 21
118.674418
 31
0.0
  0
LINE
  5
661
100
AcDbEntity
  8
1
370
     9
  6
CENTER
 62
     7
100
AcDbLine
 10
218.866964
 20
160.674418
 30
0.0
 11
206.614221
 21
160.674418
 31
0.0
  0
LINE
  5
662
100
AcDbEntity
  8
1
370
     9
  6
PHANTOM
 62
     7
100
AcDbLine
 10
218.697985
 20
109.674418
 30
0.0
 11
214.832999
 21
109.674418
 31
0.0
  0
LINE
  5
663
100
AcDbEntity
  8
1
370
     9
  6
PHANTOM
 62
     7
100
AcDbLine
 10
218.697985
 20
169.674418
 30
0.0
 11
214.832999
 21
169.674418
 31
0.0
  0
LINE
  5
664
100
AcDbEntity
  8
1
370
     9
  6
PHANTOM
 62
     7
100
AcDbLine
 10
140.697985
 20
109.674418
 30
0.0
 11
146.632999
 21
109.674418
 31
0.0
  0
LINE
  5
665
100
AcDbEntity
  8
1
370
     9
  6
PHANTOM
 62
     7
100
AcDbLine
 10
140.697985
 20
169.674418
 30
0.0
 11
146.302999
 21
169.674418
 31
0.0
  0
LINE
  5
666
100
AcDbEntity
  8
1
370
     9
  6
PHANTOM
 62
     7
100
AcDbLine
 10
218.697985
 20
169.674418
 30
0.0
 11
219.697985
 21
168.674418
 31
0.0
  0
LINE
  5
667
100
AcDbEntity
  8
1
370
     9
  6
PHANTOM
 62
     7
100
AcDbLine
 10
219.697985
 20
168.674418
 30
0.0
 11
219.697985
 21
110.674418
 31
0.0
  0
LINE
  5
668
100
AcDbEntity
  8
1
370
     9
  6
PHANTOM
 62
     7
100
AcDbLine
 10
219.697985
 20
110.674418
 30
0.0
 11
218.697985
 21
109.674418
 31
0.0
  0
LINE
  5
669
100
AcDbEntity
  8
1
370
     9
  6
PHANTOM
 62
     7
100
AcDbLine
 10
140.697985
 20
169.674418
 30
0.0
 11
139.697985
 21
168.674418
 31
0.0
  0
LINE
  5
66A
100
AcDbEntity
  8
1
370
     9
  6
PHANTOM
 62
     7
100
AcDbLine
 10
139.697985
 20
168.674418
 30
0.0
 11
139.697985
 21
110.674418
 31
0.0
  0
LINE
  5
66B
100
AcDbEntity
  8
1
370
     9
  6
PHANTOM
 62
     7
100
AcDbLine
 10
139.697985
 20
110.674418
 30
0.0
 11
140.697985
 21
109.674418
 31
0.0
  0
LINE
  5
66C
100
AcDbEntity
  8
1
370
    30
  6
Continuous
 62
     7
100
AcDbLine
 10
209.697985
 20
168.674418
 30
0.0
 11
208.697985
 21
169.674418
 31
0.0
  0
LINE
  5
66D
100
AcDbEntity
  8
1
370
    30
  6
Continuous
 62
     7
100
AcDbLine
 10
150.697985
 20
169.674418
 30
0.0
 11
208.697985
 21
169.674418
 31
0.0
  0
LINE
  5
66E
100
AcDbEntity
  8
1
370
    30
  6
Continuous
 62
     7
100
AcDbLine
 10
208.697985
 20
109.674418
 30
0.0
 11
209.697985
 21
110.674418
 31
0.0
  0
LINE
  5
66F
100
AcDbEntity
  8
1
370
    30
  6
Continuous
 62
     7
100
AcDbLine
 10
150.697985
 20
109.674418
 30
0.0
 11
208.697985
 21
109.674418
 31
0.0
  0
LINE
  5
670
100
AcDbEntity
  8
1
370
    30
  6
Continuous
 62
     7
100
AcDbLine
 10
149.697985
 20
110.674418
 30
0.0
 11
150.697985
 21
109.674418
 31
0.0
  0
LINE
  5
671
100
AcDbEntity
  8
1
370
    30
  6
Continuous
 62
     7
100
AcDbLine
 10
149.697985
 20
168.674418
 30
0.0
 11
149.697985
 21
110.674418
 31
0.0
  0
LINE
  5
672
100
AcDbEntity
  8
1
370
    30
  6
Continuous
 62
     7
100
AcDbLine
 10
150.697985
 20
169.674418
 30
0.0
 11
149.697985
 21
168.674418
 31
0.0
  0
CIRCLE
  5
673
100
AcDbEntity
  8
1
370
    30
  6
Continuous
 62
     7
100
AcDbCircle
 10
157.197986
 20
160.174418
 30
0.0
 40
2.75
  0
LINE
  5
674
100
AcDbEntity
  8
1
370
    30
  6
Continuous
 62
     7
100
AcDbLine
 10
155.75461
 20
160.174419
 30
0.0
 11
156.476298
 21
158.924419
 31
0.0
  0
LINE
  5
675
100
AcDbEntity
  8
1
370
    30
  6
Continuous
 62
     7
100
AcDbLine
 10
156.476298
 20
161.424419
 30
0.0
 11
155.75461
 21
160.174419
 31
0.0
  0
LINE
  5
676
100
AcDbEntity
  8
1
370
    30
  6
Continuous
 62
     7
100
AcDbLine
 10
156.476298
 20
161.424419
 30
0.0
 11
157.919672
 21
161.424419
 31
0.0
  0
LINE
  5
677
100
AcDbEntity
  8
1
370
    30
  6
Continuous
 62
     7
100
AcDbLine
 10
156.476298
 20
158.924419
 30
0.0
 11
157.919672
 21
158.924419
 31
0.0
  0
LINE
  5
678
100
AcDbEntity
  8
1
370
    30
  6
Continuous
 62
     7
100
AcDbLine
 10
158.64136
 20
160.174419
 30
0.0
 11
157.919672
 21
158.924419
 31
0.0
  0
LINE
  5
679
100
AcDbEntity
  8
1
370
    30
  6
Continuous
 62
     7
100
AcDbLine
 10
157.919672
 20
161.424419
 30
0.0
 11
158.64136
 21
160.174419
 31
0.0
  0
CIRCLE
  5
67A
100
AcDbEntity
  8
1
370
    30
  6
Continuous
 62
     7
100
AcDbCircle
 10
172.197986
 20
160.174418
 30
0.0
 40
2.75
  0
LINE
  5
67B
100
AcDbEntity
  8
1
370
    30
  6
Continuous
 62
     7
100
AcDbLine
 10
170.75461
 20
160.174419
 30
0.0
 11
171.476298
 21
158.924419
 31
0.0
  0
LINE
  5
67C
100
AcDbEntity
  8
1
370
    30
  6
Continuous
 62
     7
100
AcDbLine
 10
171.476298
 20
161.424419
 30
0.0
 11
170.75461
 21
160.174419
 31
0.0
  0
LINE
  5
67D
100
AcDbEntity
  8
1
370
    30
  6
Continuous
 62
     7
100
AcDbLine
 10
171.476298
 20
161.424419
 30
0.0
 11
172.919672
 21
161.424419
 31
0.0
  0
LINE
  5
67E
100
AcDbEntity
  8
1
370
    30
  6
Continuous
 62
     7
100
AcDbLine
 10
171.476298
 20
158.924419
 30
0.0
 11
172.919672
 21
158.924419
 31
0.0
  0
LINE
  5
67F
100
AcDbEntity
  8
1
370
    30
  6
Continuous
 62
     7
100
AcDbLine
 10
173.64136
 20
160.174419
 30
0.0
 11
172.919672
 21
158.924419
 31
0.0
  0
LINE
  5
680
100
AcDbEntity
  8
1
370
    30
  6
Continuous
 62
     7
100
AcDbLine
 10
172.919672
 20
161.424419
 30
0.0
 11
173.64136
 21
160.174419
 31
0.0
  0
CIRCLE
  5
681
100
AcDbEntity
  8
1
370
    30
  6
Continuous
 62
     7
100
AcDbCircle
 10
187.197986
 20
160.174418
 30
0.0
 40
2.75
  0
LINE
  5
682
100
AcDbEntity
  8
1
370
    30
  6
Continuous
 62
     7
100
AcDbLine
 10
185.75461
 20
160.174419
 30
0.0
 11
186.476298
 21
158.924419
 31
0.0
  0
LINE
  5
683
100
AcDbEntity
  8
1
370
    30
  6
Continuous
 62
     7
100
AcDbLine
 10
186.476298
 20
161.424419
 30
0.0
 11
185.75461
 21
160.174419
 31
0.0
  0
LINE
  5
684
100
AcDbEntity
  8
1
370
    30
  6
Continuous
 62
     7
100
AcDbLine
 10
186.476298
 20
161.424419
 30
0.0
 11
187.919672
 21
161.424419
 31
0.0
  0
LINE
  5
685
100
AcDbEntity
  8
1
370
    30
  6
Continuous
 62
     7
100
AcDbLine
 10
186.476298
 20
158.924419
 30
0.0
 11
187.919672
 21
158.924419
 31
0.0
  0
LINE
  5
686
100
AcDbEntity
  8
1
370
    30
  6
Continuous
 62
     7
100
AcDbLine
 10
188.64136
 20
160.174419
 30
0.0
 11
187.919672
 21
158.924419
 31
0.0
  0
LINE
  5
687
100
AcDbEntity
  8
1
370
    30
  6
Continuous
 62
     7
100
AcDbLine
 10
187.919672
 20
161.424419
 30
0.0
 11
188.64136
 21
160.174419
 31
0.0
  0
CIRCLE
  5
688
100
AcDbEntity
  8
1
370
    30
  6
Continuous
 62
     7
100
AcDbCircle
 10
202.197986
 20
160.174418
 30
0.0
 40
2.75
  0
LINE
  5
689
100
AcDbEntity
  8
1
370
    30
  6
Continuous
 62
     7
100
AcDbLine
 10
200.75461
 20
160.174419
 30
0.0
 11
201.476298
 21
158.924419
 31
0.0
  0
LINE
  5
68A
100
AcDbEntity
  8
1
370
    30
  6
Continuous
 62
     7
100
AcDbLine
 10
201.476298
 20
161.424419
 30
0.0
 11
200.75461
 21
160.174419
 31
0.0
  0
LINE
  5
68B
100
AcDbEntity
  8
1
370
    30
  6
Continuous
 62
     7
100
AcDbLine
 10
201.476298
 20
161.424419
 30
0.0
 11
202.919672
 21
161.424419
 31
0.0
  0
LINE
  5
68C
100
AcDbEntity
  8
1
370
    30
  6
Continuous
 62
     7
100
AcDbLine
 10
201.476298
 20
158.924419
 30
0.0
 11
202.919672
 21
158.924419
 31
0.0
  0
LINE
  5
68D
100
AcDbEntity
  8
1
370
    30
  6
Continuous
 62
     7
100
AcDbLine
 10
203.64136
 20
160.174419
 30
0.0
 11
202.919672
 21
158.924419
 31
0.0
  0
LINE
  5
68E
100
AcDbEntity
  8
1
370
    30
  6
Continuous
 62
     7
100
AcDbLine
 10
202.919672
 20
161.424419
 30
0.0
 11
203.64136
 21
160.174419
 31
0.0
  0
CIRCLE
  5
68F
100
AcDbEntity
  8
1
370
    30
  6
Continuous
 62
     7
100
AcDbCircle
 10
168.697986
 20
139.674418
 30
0.0
 40
2.75
  0
LINE
  5
690
100
AcDbEntity
  8
1
370
    30
  6
Continuous
 62
     7
100
AcDbLine
 10
167.25461
 20
139.674419
 30
0.0
 11
167.976298
 21
138.424419
 31
0.0
  0
LINE
  5
691
100
AcDbEntity
  8
1
370
    30
  6
Continuous
 62
     7
100
AcDbLine
 10
167.976298
 20
140.924419
 30
0.0
 11
167.25461
 21
139.674419
 31
0.0
  0
LINE
  5
692
100
AcDbEntity
  8
1
370
    30
  6
Continuous
 62
     7
100
AcDbLine
 10
167.976298
 20
140.924419
 30
0.0
 11
169.419672
 21
140.924419
 31
0.0
  0
LINE
  5
693
100
AcDbEntity
  8
1
370
    30
  6
Continuous
 62
     7
100
AcDbLine
 10
167.976298
 20
138.424419
 30
0.0
 11
169.419672
 21
138.424419
 31
0.0
  0
LINE
  5
694
100
AcDbEntity
  8
1
370
    30
  6
Continuous
 62
     7
100
AcDbLine
 10
170.14136
 20
139.674419
 30
0.0
 11
169.419672
 21
138.424419
 31
0.0
  0
LINE
  5
695
100
AcDbEntity
  8
1
370
    30
  6
Continuous
 62
     7
100
AcDbLine
 10
169.419672
 20
140.924419
 30
0.0
 11
170.14136
 21
139.674419
 31
0.0
  0
CIRCLE
  5
696
100
AcDbEntity
  8
1
370
    30
  6
Continuous
 62
     7
100
AcDbCircle
 10
175.697986
 20
139.674418
 30
0.0
 40
2.75
  0
LINE
  5
697
100
AcDbEntity
  8
1
370
    30
  6
Continuous
 62
     7
100
AcDbLine
 10
174.25461
 20
139.674419
 30
0.0
 11
174.976298
 21
138.424419
 31
0.0
  0
LINE
  5
698
100
AcDbEntity
  8
1
370
    30
  6
Continuous
 62
     7
100
AcDbLine
 10
174.976298
 20
140.924419
 30
0.0
 11
174.25461
 21
139.674419
 31
0.0
  0
LINE
  5
699
100
AcDbEntity
  8
1
370
    30
  6
Continuous
 62
     7
100
AcDbLine
 10
174.976298
 20
140.924419
 30
0.0
 11
176.419672
 21
140.924419
 31
0.0
  0
LINE
  5
69A
100
AcDbEntity
  8
1
370
    30
  6
Continuous
 62
     7
100
AcDbLine
 10
174.976298
 20
138.424419
 30
0.0
 11
176.419672
 21
138.424419
 31
0.0
  0
LINE
  5
69B
100
AcDbEntity
  8
1
370
    30
  6
Continuous
 62
     7
100
AcDbLine
 10
177.14136
 20
139.674419
 30
0.0
 11
176.419672
 21
138.424419
 31
0.0
  0
LINE
  5
69C
100
AcDbEntity
  8
1
370
    30
  6
Continuous
 62
     7
100
AcDbLine
 10
176.419672
 20
140.924419
 30
0.0
 11
177.14136
 21
139.674419
 31
0.0
  0
CIRCLE
  5
69D
100
AcDbEntity
  8
1
370
    30
  6
Continuous
 62
     7
100
AcDbCircle
 10
157.197986
 20
119.174418
 30
0.0
 40
2.75
  0
LINE
  5
69E
100
AcDbEntity
  8
1
370
    30
  6
Continuous
 62
     7
100
AcDbLine
 10
155.75461
 20
119.174419
 30
0.0
 11
156.476298
 21
117.924419
 31
0.0
  0
LINE
  5
69F
100
AcDbEntity
  8
1
370
    30
  6
Continuous
 62
     7
100
AcDbLine
 10
156.476298
 20
120.424419
 30
0.0
 11
155.75461
 21
119.174419
 31
0.0
  0
LINE
  5
6A0
100
AcDbEntity
  8
1
370
    30
  6
Continuous
 62
     7
100
AcDbLine
 10
156.476298
 20
120.424419
 30
0.0
 11
157.919672
 21
120.424419
 31
0.0
  0
LINE
  5
6A1
100
AcDbEntity
  8
1
370
    30
  6
Continuous
 62
     7
100
AcDbLine
 10
156.476298
 20
117.924419
 30
0.0
 11
157.919672
 21
117.924419
 31
0.0
  0
LINE
  5
6A2
100
AcDbEntity
  8
1
370
    30
  6
Continuous
 62
     7
100
AcDbLine
 10
158.64136
 20
119.174419
 30
0.0
 11
157.919672
 21
117.924419
 31
0.0
  0
LINE
  5
6A3
100
AcDbEntity
  8
1
370
    30
  6
Continuous
 62
     7
100
AcDbLine
 10
157.919672
 20
120.424419
 30
0.0
 11
158.64136
 21
119.174419
 31
0.0
  0
CIRCLE
  5
6A4
100
AcDbEntity
  8
1
370
    30
  6
Continuous
 62
     7
100
AcDbCircle
 10
172.197986
 20
119.174418
 30
0.0
 40
2.75
  0
LINE
  5
6A5
100
AcDbEntity
  8
1
370
    30
  6
Continuous
 62
     7
100
AcDbLine
 10
170.75461
 20
119.174419
 30
0.0
 11
171.476298
 21
117.924419
 31
0.0
  0
LINE
  5
6A6
100
AcDbEntity
  8
1
370
    30
  6
Continuous
 62
     7
100
AcDbLine
 10
171.476298
 20
120.424419
 30
0.0
 11
170.75461
 21
119.174419
 31
0.0
  0
LINE
  5
6A7
100
AcDbEntity
  8
1
370
    30
  6
Continuous
 62
     7
100
AcDbLine
 10
171.476298
 20
120.424419
 30
0.0
 11
172.919672
 21
120.424419
 31
0.0
  0
LINE
  5
6A8
100
AcDbEntity
  8
1
370
    30
  6
Continuous
 62
     7
100
AcDbLine
 10
171.476298
 20
117.924419
 30
0.0
 11
172.919672
 21
117.924419
 31
0.0
  0
LINE
  5
6A9
100
AcDbEntity
  8
1
370
    30
  6
Continuous
 62
     7
100
AcDbLine
 10
173.64136
 20
119.174419
 30
0.0
 11
172.919672
 21
117.924419
 31
0.0
  0
LINE
  5
6AA
100
AcDbEntity
  8
1
370
    30
  6
Continuous
 62
     7
100
AcDbLine
 10
172.919672
 20
120.424419
 30
0.0
 11
173.64136
 21
119.174419
 31
0.0
  0
CIRCLE
  5
6AB
100
AcDbEntity
  8
1
370
    30
  6
Continuous
 62
     7
100
AcDbCircle
 10
187.197986
 20
119.174418
 30
0.0
 40
2.75
  0
LINE
  5
6AC
100
AcDbEntity
  8
1
370
    30
  6
Continuous
 62
     7
100
AcDbLine
 10
185.75461
 20
119.174419
 30
0.0
 11
186.476298
 21
117.924419
 31
0.0
  0
LINE
  5
6AD
100
AcDbEntity
  8
1
370
    30
  6
Continuous
 62
     7
100
AcDbLine
 10
186.476298
 20
120.424419
 30
0.0
 11
185.75461
 21
119.174419
 31
0.0
  0
LINE
  5
6AE
100
AcDbEntity
  8
1
370
    30
  6
Continuous
 62
     7
100
AcDbLine
 10
186.476298
 20
120.424419
 30
0.0
 11
187.919672
 21
120.424419
 31
0.0
  0
LINE
  5
6AF
100
AcDbEntity
  8
1
370
    30
  6
Continuous
 62
     7
100
AcDbLine
 10
186.476298
 20
117.924419
 30
0.0
 11
187.919672
 21
117.924419
 31
0.0
  0
LINE
  5
6B0
100
AcDbEntity
  8
1
370
    30
  6
Continuous
 62
     7
100
AcDbLine
 10
188.64136
 20
119.174419
 30
0.0
 11
187.919672
 21
117.924419
 31
0.0
  0
LINE
  5
6B1
100
AcDbEntity
  8
1
370
    30
  6
Continuous
 62
     7
100
AcDbLine
 10
187.919672
 20
120.424419
 30
0.0
 11
188.64136
 21
119.174419
 31
0.0
  0
CIRCLE
  5
6B2
100
AcDbEntity
  8
1
370
    30
  6
Continuous
 62
     7
100
AcDbCircle
 10
202.197986
 20
119.174418
 30
0.0
 40
2.75
  0
LINE
  5
6B3
100
AcDbEntity
  8
1
370
    30
  6
Continuous
 62
     7
100
AcDbLine
 10
200.75461
 20
119.174419
 30
0.0
 11
201.476298
 21
117.924419
 31
0.0
  0
LINE
  5
6B4
100
AcDbEntity
  8
1
370
    30
  6
Continuous
 62
     7
100
AcDbLine
 10
201.476298
 20
120.424419
 30
0.0
 11
200.75461
 21
119.174419
 31
0.0
  0
LINE
  5
6B5
100
AcDbEntity
  8
1
370
    30
  6
Continuous
 62
     7
100
AcDbLine
 10
201.476298
 20
120.424419
 30
0.0
 11
202.919672
 21
120.424419
 31
0.0
  0
LINE
  5
6B6
100
AcDbEntity
  8
1
370
    30
  6
Continuous
 62
     7
100
AcDbLine
 10
201.476298
 20
117.924419
 30
0.0
 11
202.919672
 21
117.924419
 31
0.0
  0
LINE
  5
6B7
100
AcDbEntity
  8
1
370
    30
  6
Continuous
 62
     7
100
AcDbLine
 10
203.64136
 20
119.174419
 30
0.0
 11
202.919672
 21
117.924419
 31
0.0
  0
LINE
  5
6B8
100
AcDbEntity
  8
1
370
    30
  6
Continuous
 62
     7
100
AcDbLine
 10
202.919672
 20
120.424419
 30
0.0
 11
203.64136
 21
119.174419
 31
0.0
  0
CIRCLE
  5
6B9
100
AcDbEntity
  8
1
370
    30
  6
Continuous
 62
     7
100
AcDbCircle
 10
175.697985
 20
139.674418
 30
0.0
 40
3.0
  0
LINE
  5
6BA
100
AcDbEntity
  8
1
370
     9
  6
CENTER
 62
     7
100
AcDbLine
 10
175.697985
 20
143.674418
 30
0.0
 11
175.697985
 21
135.674418
 31
0.0
  0
CIRCLE
  5
6BB
100
AcDbEntity
  8
1
370
    30
  6
Continuous
 62
     7
100
AcDbCircle
 10
168.697985
 20
139.674418
 30
0.0
 40
3.0
  0
LINE
  5
6BC
100
AcDbEntity
  8
1
370
     9
  6
CENTER
 62
     7
100
AcDbLine
 10
168.697985
 20
143.674418
 30
0.0
 11
168.697985
 21
135.674418
 31
0.0
  0
CIRCLE
  5
6BD
100
AcDbEntity
  8
1
370
     9
  6
Continuous
 62
     7
100
AcDbCircle
 10
154.697985
 20
114.674418
 30
0.0
 40
2.0
  0
CIRCLE
  5
6BE
100
AcDbEntity
  8
1
370
     9
  6
Continuous
 62
     7
100
AcDbCircle
 10
154.697985
 20
114.674418
 30
0.0
 40
1.5
  0
CIRCLE
  5
6BF
100
AcDbEntity
  8
1
370
     9
  6
Continuous
 62
     7
100
AcDbCircle
 10
154.697985
 20
164.674418
 30
0.0
 40
2.0
  0
CIRCLE
  5
6C0
100
AcDbEntity
  8
1
370
     9
  6
Continuous
 62
     7
100
AcDbCircle
 10
154.697985
 20
164.674418
 30
0.0
 40
1.5
  0
CIRCLE
  5
6C1
100
AcDbEntity
  8
1
370
     9
  6
Continuous
 62
     7
100
AcDbCircle
 10
204.697985
 20
164.674418
 30
0.0
 40
2.0
  0
CIRCLE
  5
6C2
100
AcDbEntity
  8
1
370
     9
  6
Continuous
 62
     7
100
AcDbCircle
 10
204.697985
 20
164.674418
 30
0.0
 40
1.5
  0
CIRCLE
  5
6C3
100
AcDbEntity
  8
1
370
     9
  6
Continuous
 62
     7
100
AcDbCircle
 10
204.697985
 20
114.674418
 30
0.0
 40
2.0
  0
CIRCLE
  5
6C4
100
AcDbEntity
  8
1
370
     9
  6
Continuous
 62
     7
100
AcDbCircle
 10
204.697985
 20
114.674418
 30
0.0
 40
1.5
  0
CIRCLE
  5
6C5
100
AcDbEntity
  8
1
370
     9
  6
Continuous
 62
     7
100
AcDbCircle
 10
163.697985
 20
155.674418
 30
0.0
 40
1.5
  0
CIRCLE
  5
6C6
100
AcDbEntity
  8
1
370
     9
  6
Continuous
 62
     7
100
AcDbCircle
 10
163.697985
 20
155.674418
 30
0.0
 40
1.0
  0
CIRCLE
  5
6C7
100
AcDbEntity
  8
1
370
     9
  6
Continuous
 62
     7
100
AcDbCircle
 10
195.697985
 20
155.674418
 30
0.0
 40
1.5
  0
CIRCLE
  5
6C8
100
AcDbEntity
  8
1
370
     9
  6
Continuous
 62
     7
100
AcDbCircle
 10
195.697985
 20
155.674418
 30
0.0
 40
1.0
  0
CIRCLE
  5
6C9
100
AcDbEntity
  8
1
370
     9
  6
Continuous
 62
     7
100
AcDbCircle
 10
195.697985
 20
123.674418
 30
0.0
 40
1.5
  0
CIRCLE
  5
6CA
100
AcDbEntity
  8
1
370
     9
  6
Continuous
 62
     7
100
AcDbCircle
 10
195.697985
 20
123.674418
 30
0.0
 40
1.0
  0
CIRCLE
  5
6CB
100
AcDbEntity
  8
1
370
     9
  6
Continuous
 62
     7
100
AcDbCircle
 10
163.697985
 20
123.674418
 30
0.0
 40
1.5
  0
CIRCLE
  5
6CC
100
AcDbEntity
  8
1
370
     9
  6
Continuous
 62
     7
100
AcDbCircle
 10
163.697985
 20
123.674418
 30
0.0
 40
1.0
  0
LINE
  5
6CD
100
AcDbEntity
  8
1
370
     9
  6
CENTER
 62
     7
100
AcDbLine
 10
154.697985
 20
161.674418
 30
0.0
 11
154.697985
 21
167.674418
 31
0.0
  0
LINE
  5
6CE
100
AcDbEntity
  8
1
370
     9
  6
CENTER
 62
     7
100
AcDbLine
 10
151.697985
 20
164.674418
 30
0.0
 11
157.697985
 21
164.674418
 31
0.0
  0
LINE
  5
6CF
100
AcDbEntity
  8
1
370
     9
  6
CENTER
 62
     7
100
AcDbLine
 10
204.697985
 20
161.674418
 30
0.0
 11
204.697985
 21
167.674418
 31
0.0
  0
LINE
  5
6D0
100
AcDbEntity
  8
1
370
     9
  6
CENTER
 62
     7
100
AcDbLine
 10
207.697985
 20
164.674418
 30
0.0
 11
201.697985
 21
164.674418
 31
0.0
  0
LINE
  5
6D1
100
AcDbEntity
  8
1
370
     9
  6
CENTER
 62
     7
100
AcDbLine
 10
154.697985
 20
117.674418
 30
0.0
 11
154.697985
 21
111.674418
 31
0.0
  0
LINE
  5
6D2
100
AcDbEntity
  8
1
370
     9
  6
CENTER
 62
     7
100
AcDbLine
 10
151.697985
 20
114.674418
 30
0.0
 11
157.697985
 21
114.674418
 31
0.0
  0
LINE
  5
6D3
100
AcDbEntity
  8
1
370
     9
  6
CENTER
 62
     7
100
AcDbLine
 10
204.697985
 20
117.674418
 30
0.0
 11
204.697985
 21
111.674418
 31
0.0
  0
LINE
  5
6D4
100
AcDbEntity
  8
1
370
     9
  6
CENTER
 62
     7
100
AcDbLine
 10
207.697985
 20
114.674418
 30
0.0
 11
201.697985
 21
114.674418
 31
0.0
  0
LINE
  5
6D5
100
AcDbEntity
  8
1
370
     9
  6
CENTER
 62
     7
100
AcDbLine
 10
163.697985
 20
157.674418
 30
0.0
 11
163.697985
 21
153.674418
 31
0.0
  0
LINE
  5
6D6
100
AcDbEntity
  8
1
370
     9
  6
CENTER
 62
     7
100
AcDbLine
 10
165.697985
 20
155.674418
 30
0.0
 11
161.697985
 21
155.674418
 31
0.0
  0
LINE
  5
6D7
100
AcDbEntity
  8
1
370
     9
  6
CENTER
 62
     7
100
AcDbLine
 10
195.697985
 20
157.674418
 30
0.0
 11
195.697985
 21
153.674418
 31
0.0
  0
LINE
  5
6D8
100
AcDbEntity
  8
1
370
     9
  6
CENTER
 62
     7
100
AcDbLine
 10
193.697985
 20
155.674418
 30
0.0
 11
197.697985
 21
155.674418
 31
0.0
  0
LINE
  5
6D9
100
AcDbEntity
  8
1
370
     9
  6
CENTER
 62
     7
100
AcDbLine
 10
163.697985
 20
121.674418
 30
0.0
 11
163.697985
 21
125.674418
 31
0.0
  0
LINE
  5
6DA
100
AcDbEntity
  8
1
370
     9
  6
CENTER
 62
     7
100
AcDbLine
 10
165.697985
 20
123.674418
 30
0.0
 11
161.697985
 21
123.674418
 31
0.0
  0
LINE
  5
6DB
100
AcDbEntity
  8
1
370
     9
  6
CENTER
 62
     7
100
AcDbLine
 10
195.697985
 20
121.674418
 30
0.0
 11
195.697985
 21
125.674418
 31
0.0
  0
LINE
  5
6DC
100
AcDbEntity
  8
1
370
     9
  6
CENTER
 62
     7
100
AcDbLine
 10
193.697985
 20
123.674418
 30
0.0
 11
197.697985
 21
123.674418
 31
0.0
  0
CIRCLE
  5
6DD
100
AcDbEntity
  8
1
370
    30
  6
Continuous
 62
     7
100
AcDbCircle
 10
157.197985
 20
119.174418
 30
0.0
 40
3.0
  0
CIRCLE
  5
6DE
100
AcDbEntity
  8
1
370
    30
  6
Continuous
 62
     7
100
AcDbCircle
 10
172.197985
 20
119.174418
 30
0.0
 40
3.0
  0
CIRCLE
  5
6DF
100
AcDbEntity
  8
1
370
    30
  6
Continuous
 62
     7
100
AcDbCircle
 10
187.197985
 20
119.174418
 30
0.0
 40
3.0
  0
CIRCLE
  5
6E0
100
AcDbEntity
  8
1
370
    30
  6
Continuous
 62
     7
100
AcDbCircle
 10
202.197985
 20
119.174418
 30
0.0
 40
3.0
  0
LINE
  5
6E1
100
AcDbEntity
  8
1
370
     9
  6
CENTER
 62
     7
100
AcDbLine
 10
157.197985
 20
123.174418
 30
0.0
 11
157.197985
 21
115.174418
 31
0.0
  0
LINE
  5
6E2
100
AcDbEntity
  8
1
370
     9
  6
CENTER
 62
     7
100
AcDbLine
 10
153.197985
 20
119.174418
 30
0.0
 11
161.197985
 21
119.174418
 31
0.0
  0
LINE
  5
6E3
100
AcDbEntity
  8
1
370
     9
  6
CENTER
 62
     7
100
AcDbLine
 10
172.197985
 20
123.174418
 30
0.0
 11
172.197985
 21
115.174418
 31
0.0
  0
LINE
  5
6E4
100
AcDbEntity
  8
1
370
     9
  6
CENTER
 62
     7
100
AcDbLine
 10
168.197985
 20
119.174418
 30
0.0
 11
176.197985
 21
119.174418
 31
0.0
  0
LINE
  5
6E5
100
AcDbEntity
  8
1
370
     9
  6
CENTER
 62
     7
100
AcDbLine
 10
187.197985
 20
123.174418
 30
0.0
 11
187.197985
 21
115.174418
 31
0.0
  0
LINE
  5
6E6
100
AcDbEntity
  8
1
370
     9
  6
CENTER
 62
     7
100
AcDbLine
 10
183.197985
 20
119.174418
 30
0.0
 11
191.197985
 21
119.174418
 31
0.0
  0
LINE
  5
6E7
100
AcDbEntity
  8
1
370
     9
  6
CENTER
 62
     7
100
AcDbLine
 10
202.197985
 20
123.174418
 30
0.0
 11
202.197985
 21
115.174418
 31
0.0
  0
LINE
  5
6E8
100
AcDbEntity
  8
1
370
     9
  6
CENTER
 62
     7
100
AcDbLine
 10
198.197985
 20
119.174418
 30
0.0
 11
206.197985
 21
119.174418
 31
0.0
  0
CIRCLE
  5
6E9
100
AcDbEntity
  8
1
370
    30
  6
Continuous
 62
     7
100
AcDbCircle
 10
157.197985
 20
160.174418
 30
0.0
 40
3.0
  0
CIRCLE
  5
6EA
100
AcDbEntity
  8
1
370
    30
  6
Continuous
 62
     7
100
AcDbCircle
 10
172.197985
 20
160.174418
 30
0.0
 40
3.0
  0
CIRCLE
  5
6EB
100
AcDbEntity
  8
1
370
    30
  6
Continuous
 62
     7
100
AcDbCircle
 10
187.197985
 20
160.174418
 30
0.0
 40
3.0
  0
CIRCLE
  5
6EC
100
AcDbEntity
  8
1
370
    30
  6
Continuous
 62
     7
100
AcDbCircle
 10
202.197985
 20
160.174418
 30
0.0
 40
3.0
  0
LINE
  5
6ED
100
AcDbEntity
  8
1
370
     9
  6
CENTER
 62
     7
100
AcDbLine
 10
157.197985
 20
156.174418
 30
0.0
 11
157.197985
 21
164.174418
 31
0.0
  0
LINE
  5
6EE
100
AcDbEntity
  8
1
370
     9
  6
CENTER
 62
     7
100
AcDbLine
 10
153.197985
 20
160.174418
 30
0.0
 11
161.197985
 21
160.174418
 31
0.0
  0
LINE
  5
6EF
100
AcDbEntity
  8
1
370
     9
  6
CENTER
 62
     7
100
AcDbLine
 10
172.197985
 20
156.174418
 30
0.0
 11
172.197985
 21
164.174418
 31
0.0
  0
LINE
  5
6F0
100
AcDbEntity
  8
1
370
     9
  6
CENTER
 62
     7
100
AcDbLine
 10
168.197985
 20
160.174418
 30
0.0
 11
176.197985
 21
160.174418
 31
0.0
  0
LINE
  5
6F1
100
AcDbEntity
  8
1
370
     9
  6
CENTER
 62
     7
100
AcDbLine
 10
187.197985
 20
156.174418
 30
0.0
 11
187.197985
 21
164.174418
 31
0.0
  0
LINE
  5
6F2
100
AcDbEntity
  8
1
370
     9
  6
CENTER
 62
     7
100
AcDbLine
 10
183.197985
 20
160.174418
 30
0.0
 11
191.197985
 21
160.174418
 31
0.0
  0
LINE
  5
6F3
100
AcDbEntity
  8
1
370
     9
  6
CENTER
 62
     7
100
AcDbLine
 10
202.197985
 20
156.174418
 30
0.0
 11
202.197985
 21
164.174418
 31
0.0
  0
LINE
  5
6F4
100
AcDbEntity
  8
1
370
     9
  6
CENTER
 62
     7
100
AcDbLine
 10
198.197985
 20
160.174418
 30
0.0
 11
206.197985
 21
160.174418
 31
0.0
  0
LINE
  5
6F5
100
AcDbEntity
  8
1
370
     9
  6
CENTER
 62
     7
100
AcDbLine
 10
196.697985
 20
106.174418
 30
0.0
 11
196.697985
 21
97.674418
 31
0.0
  0
LINE
  5
6F6
100
AcDbEntity
  8
1
370
    30
  6
Continuous
 62
     7
100
AcDbLine
 10
193.947985
 20
98.474418
 30
0.0
 11
193.947985
 21
101.174418
 31
0.0
  0
LINE
  5
6F7
100
AcDbEntity
  8
1
370
    30
  6
Continuous
 62
     7
100
AcDbLine
 10
199.447985
 20
98.474418
 30
0.0
 11
199.447985
 21
101.174418
 31
0.0
  0
LINE
  5
6F8
100
AcDbEntity
  8
1
370
    30
  6
Continuous
 62
     7
100
AcDbLine
 10
194.247985
 20
98.174418
 30
0.0
 11
199.147985
 21
98.174418
 31
0.0
  0
LINE
  5
6F9
100
AcDbEntity
  8
1
370
    30
  6
Continuous
 62
     7
100
AcDbLine
 10
193.947985
 20
98.474418
 30
0.0
 11
199.447985
 21
98.474418
 31
0.0
  0
LINE
  5
6FA
100
AcDbEntity
  8
1
370
    30
  6
Continuous
 62
     7
100
AcDbLine
 10
194.247985
 20
98.174418
 30
0.0
 11
193.947985
 21
98.474418
 31
0.0
  0
LINE
  5
6FB
100
AcDbEntity
  8
1
370
    30
  6
Continuous
 62
     7
100
AcDbLine
 10
199.147985
 20
98.174418
 30
0.0
 11
199.447985
 21
98.474418
 31
0.0
  0
LINE
  5
6FC
100
AcDbEntity
  8
1
370
    30
  6
Continuous
 62
     7
100
AcDbLine
 10
207.697985
 20
102.174418
 30
0.0
 11
207.697985
 21
101.174418
 31
0.0
  0
LINE
  5
6FD
100
AcDbEntity
  8
1
370
    30
  6
Continuous
 62
     7
100
AcDbLine
 10
201.697985
 20
102.174418
 30
0.0
 11
207.697985
 21
102.174418
 31
0.0
  0
LINE
  5
6FE
100
AcDbEntity
  8
1
370
    30
  6
Continuous
 62
     7
100
AcDbLine
 10
192.197985
 20
101.174418
 30
0.0
 11
207.697985
 21
101.174418
 31
0.0
  0
LINE
  5
6FF
100
AcDbEntity
  8
1
370
    30
  6
Continuous
 62
     7
100
AcDbLine
 10
192.197985
 20
102.174418
 30
0.0
 11
192.197985
 21
101.174418
 31
0.0
  0
LINE
  5
700
100
AcDbEntity
  8
1
370
     9
  6
CENTER
 62
     7
100
AcDbLine
 10
162.697985
 20
106.174418
 30
0.0
 11
162.697985
 21
97.674418
 31
0.0
  0
LINE
  5
701
100
AcDbEntity
  8
1
370
    30
  6
Continuous
 62
     7
100
AcDbLine
 10
165.447985
 20
98.474418
 30
0.0
 11
165.447985
 21
101.174418
 31
0.0
  0
LINE
  5
702
100
AcDbEntity
  8
1
370
    30
  6
Continuous
 62
     7
100
AcDbLine
 10
159.947985
 20
98.474418
 30
0.0
 11
159.947985
 21
101.174418
 31
0.0
  0
LINE
  5
703
100
AcDbEntity
  8
1
370
    30
  6
Continuous
 62
     7
100
AcDbLine
 10
165.147985
 20
98.174418
 30
0.0
 11
160.247985
 21
98.174418
 31
0.0
  0
LINE
  5
704
100
AcDbEntity
  8
1
370
    30
  6
Continuous
 62
     7
100
AcDbLine
 10
165.447985
 20
98.474418
 30
0.0
 11
159.947985
 21
98.474418
 31
0.0
  0
LINE
  5
705
100
AcDbEntity
  8
1
370
    30
  6
Continuous
 62
     7
100
AcDbLine
 10
165.147985
 20
98.174418
 30
0.0
 11
165.447985
 21
98.474418
 31
0.0
  0
LINE
  5
706
100
AcDbEntity
  8
1
370
    30
  6
Continuous
 62
     7
100
AcDbLine
 10
160.247985
 20
98.174418
 30
0.0
 11
159.947985
 21
98.474418
 31
0.0
  0
LINE
  5
707
100
AcDbEntity
  8
1
370
    30
  6
Continuous
 62
     7
100
AcDbLine
 10
151.697985
 20
102.174418
 30
0.0
 11
151.697985
 21
101.174418
 31
0.0
  0
LINE
  5
708
100
AcDbEntity
  8
1
370
    30
  6
Continuous
 62
     7
100
AcDbLine
 10
157.697985
 20
102.174418
 30
0.0
 11
151.697985
 21
102.174418
 31
0.0
  0
LINE
  5
709
100
AcDbEntity
  8
1
370
    30
  6
Continuous
 62
     7
100
AcDbLine
 10
167.197985
 20
101.174418
 30
0.0
 11
151.697985
 21
101.174418
 31
0.0
  0
LINE
  5
70A
100
AcDbEntity
  8
1
370
    30
  6
Continuous
 62
     7
100
AcDbLine
 10
167.197985
 20
102.174418
 30
0.0
 11
167.197985
 21
101.174418
 31
0.0
  0
LINE
  5
70B
100
AcDbEntity
  8
1
370
     9
  6
CENTER
 62
     7
100
AcDbLine
 10
179.697985
 20
106.174418
 30
0.0
 11
179.697985
 21
97.674418
 31
0.0
  0
LINE
  5
70C
100
AcDbEntity
  8
1
370
    30
  6
Continuous
 62
     7
100
AcDbLine
 10
182.447985
 20
98.474418
 30
0.0
 11
182.447985
 21
101.174418
 31
0.0
  0
LINE
  5
70D
100
AcDbEntity
  8
1
370
    30
  6
Continuous
 62
     7
100
AcDbLine
 10
176.947985
 20
98.474418
 30
0.0
 11
176.947985
 21
101.174418
 31
0.0
  0
LINE
  5
70E
100
AcDbEntity
  8
1
370
    30
  6
Continuous
 62
     7
100
AcDbLine
 10
182.147985
 20
98.174418
 30
0.0
 11
177.247985
 21
98.174418
 31
0.0
  0
LINE
  5
70F
100
AcDbEntity
  8
1
370
    30
  6
Continuous
 62
     7
100
AcDbLine
 10
182.447985
 20
98.474418
 30
0.0
 11
176.947985
 21
98.474418
 31
0.0
  0
LINE
  5
710
100
AcDbEntity
  8
1
370
    30
  6
Continuous
 62
     7
100
AcDbLine
 10
182.147985
 20
98.174418
 30
0.0
 11
182.447985
 21
98.474418
 31
0.0
  0
LINE
  5
711
100
AcDbEntity
  8
1
370
    30
  6
Continuous
 62
     7
100
AcDbLine
 10
177.247985
 20
98.174418
 30
0.0
 11
176.947985
 21
98.474418
 31
0.0
  0
LINE
  5
712
100
AcDbEntity
  8
1
370
    30
  6
Continuous
 62
     7
100
AcDbLine
 10
186.197985
 20
102.174418
 30
0.0
 11
186.197985
 21
101.174418
 31
0.0
  0
LINE
  5
713
100
AcDbEntity
  8
1
370
    30
  6
Continuous
 62
     7
100
AcDbLine
 10
173.197985
 20
101.174418
 30
0.0
 11
186.197985
 21
101.174418
 31
0.0
  0
LINE
  5
714
100
AcDbEntity
  8
1
370
    30
  6
Continuous
 62
     7
100
AcDbLine
 10
173.197985
 20
102.174418
 30
0.0
 11
173.197985
 21
101.174418
 31
0.0
  0
LINE
  5
715
100
AcDbEntity
  8
1
370
    30
  6
Continuous
 62
     7
100
AcDbLine
 10
207.447985
 20
104.674418
 30
0.0
 11
209.697985
 21
104.674418
 31
0.0
  0
LINE
  5
716
100
AcDbEntity
  8
1
370
    30
  6
Continuous
 62
     7
100
AcDbLine
 10
149.697985
 20
104.674418
 30
0.0
 11
151.947985
 21
104.674418
 31
0.0
  0
LINE
  5
717
100
AcDbEntity
  8
1
370
    30
  6
Continuous
 62
     7
100
AcDbLine
 10
209.697985
 20
92.674418
 30
0.0
 11
209.697985
 21
104.674418
 31
0.0
  0
LINE
  5
718
100
AcDbEntity
  8
1
370
    30
  6
Continuous
 62
     7
100
AcDbLine
 10
149.697985
 20
92.674418
 30
0.0
 11
149.697985
 21
104.674418
 31
0.0
  0
LINE
  5
719
100
AcDbEntity
  8
1
370
    30
  6
Continuous
 62
     7
100
AcDbLine
 10
207.147985
 20
102.674418
 30
0.0
 11
207.447985
 21
102.974418
 31
0.0
  0
LINE
  5
71A
100
AcDbEntity
  8
1
370
    30
  6
Continuous
 62
     7
100
AcDbLine
 10
202.247985
 20
102.674418
 30
0.0
 11
201.947985
 21
102.974418
 31
0.0
  0
LINE
  5
71B
100
AcDbEntity
  8
1
370
    30
  6
Continuous
 62
     7
100
AcDbLine
 10
201.947985
 20
102.974418
 30
0.0
 11
207.447985
 21
102.974418
 31
0.0
  0
LINE
  5
71C
100
AcDbEntity
  8
1
370
    30
  6
Continuous
 62
     7
100
AcDbLine
 10
202.247985
 20
102.674418
 30
0.0
 11
207.147985
 21
102.674418
 31
0.0
  0
LINE
  5
71D
100
AcDbEntity
  8
1
370
    30
  6
Continuous
 62
     7
100
AcDbLine
 10
207.447985
 20
102.974418
 30
0.0
 11
207.447985
 21
105.674418
 31
0.0
  0
LINE
  5
71E
100
AcDbEntity
  8
1
370
    30
  6
Continuous
 62
     7
100
AcDbLine
 10
201.947985
 20
102.974418
 30
0.0
 11
201.947985
 21
105.674418
 31
0.0
  0
LINE
  5
71F
100
AcDbEntity
  8
1
370
     9
  6
CENTER
 62
     7
100
AcDbLine
 10
204.697985
 20
110.674418
 30
0.0
 11
204.697985
 21
102.174418
 31
0.0
  0
LINE
  5
720
100
AcDbEntity
  8
1
370
    30
  6
Continuous
 62
     7
100
AcDbLine
 10
157.697985
 20
105.674418
 30
0.0
 11
157.697985
 21
102.174418
 31
0.0
  0
LINE
  5
721
100
AcDbEntity
  8
1
370
    30
  6
Continuous
 62
     7
100
AcDbLine
 10
152.247985
 20
102.674418
 30
0.0
 11
151.947985
 21
102.974418
 31
0.0
  0
LINE
  5
722
100
AcDbEntity
  8
1
370
    30
  6
Continuous
 62
     7
100
AcDbLine
 10
157.147985
 20
102.674418
 30
0.0
 11
157.447985
 21
102.974418
 31
0.0
  0
LINE
  5
723
100
AcDbEntity
  8
1
370
    30
  6
Continuous
 62
     7
100
AcDbLine
 10
157.447985
 20
102.974418
 30
0.0
 11
151.947985
 21
102.974418
 31
0.0
  0
LINE
  5
724
100
AcDbEntity
  8
1
370
    30
  6
Continuous
 62
     7
100
AcDbLine
 10
157.147985
 20
102.674418
 30
0.0
 11
152.247985
 21
102.674418
 31
0.0
  0
LINE
  5
725
100
AcDbEntity
  8
1
370
    30
  6
Continuous
 62
     7
100
AcDbLine
 10
151.947985
 20
102.974418
 30
0.0
 11
151.947985
 21
105.674418
 31
0.0
  0
LINE
  5
726
100
AcDbEntity
  8
1
370
    30
  6
Continuous
 62
     7
100
AcDbLine
 10
157.447985
 20
102.974418
 30
0.0
 11
157.447985
 21
105.674418
 31
0.0
  0
LINE
  5
727
100
AcDbEntity
  8
1
370
     9
  6
CENTER
 62
     7
100
AcDbLine
 10
154.697985
 20
110.674418
 30
0.0
 11
154.697985
 21
102.174418
 31
0.0
  0
LINE
  5
728
100
AcDbEntity
  8
1
370
    30
  6
Continuous
 62
     7
100
AcDbLine
 10
150.697985
 20
109.674418
 30
0.0
 11
150.697985
 21
105.674418
 31
0.0
  0
LINE
  5
729
100
AcDbEntity
  8
1
370
    30
  6
Continuous
 62
     7
100
AcDbLine
 10
157.697985
 20
105.674418
 30
0.0
 11
150.697985
 21
105.674418
 31
0.0
  0
LINE
  5
72A
100
AcDbEntity
  8
1
370
    30
  6
Continuous
 62
     7
100
AcDbLine
 10
157.697985
 20
102.174418
 30
0.0
 11
201.697985
 21
102.174418
 31
0.0
  0
LINE
  5
72B
100
AcDbEntity
  8
1
370
    30
  6
Continuous
 62
     7
100
AcDbLine
 10
201.697985
 20
105.674418
 30
0.0
 11
201.697985
 21
102.174418
 31
0.0
  0
LINE
  5
72C
100
AcDbEntity
  8
1
370
    30
  6
Continuous
 62
     7
100
AcDbLine
 10
208.697985
 20
105.674418
 30
0.0
 11
201.697985
 21
105.674418
 31
0.0
  0
LINE
  5
72D
100
AcDbEntity
  8
1
370
    30
  6
Continuous
 62
     7
100
AcDbLine
 10
208.697985
 20
109.674418
 30
0.0
 11
208.697985
 21
105.674418
 31
0.0
  0
LINE
  5
72E
100
AcDbEntity
  8
1
370
    30
  6
Continuous
 62
     7
100
AcDbLine
 10
149.697985
 20
97.174418
 30
0.0
 11
209.697985
 21
97.174418
 31
0.0
  0
LINE
  5
72F
100
AcDbEntity
  8
1
370
     9
  6
DOT
 62
     7
100
AcDbLine
 10
209.697985
 20
93.674418
 30
0.0
 11
149.697985
 21
93.674418
 31
0.0
  0
LINE
  5
730
100
AcDbEntity
  8
1
370
    30
  6
Continuous
 62
     7
100
AcDbLine
 10
209.697985
 20
94.174418
 30
0.0
 11
216.197985
 21
94.174418
 31
0.0
  0
LINE
  5
731
100
AcDbEntity
  8
1
370
    30
  6
Continuous
 62
     7
100
AcDbLine
 10
209.697985
 20
109.174418
 30
0.0
 11
216.197985
 21
109.174418
 31
0.0
  0
LINE
  5
732
100
AcDbEntity
  8
1
370
    30
  6
Continuous
 62
     7
100
AcDbLine
 10
149.697985
 20
92.674418
 30
0.0
 11
209.697985
 21
92.674418
 31
0.0
  0
LINE
  5
733
100
AcDbEntity
  8
1
370
     9
  6
CENTER
 62
     7
100
AcDbLine
 10
159.697985
 20
96.116616
 30
0.0
 11
159.697985
 21
90.060879
 31
0.0
  0
LINE
  5
734
100
AcDbEntity
  8
1
370
     9
  6
CENTER
 62
     7
100
AcDbLine
 10
199.697985
 20
96.116616
 30
0.0
 11
199.697985
 21
90.060879
 31
0.0
  0
LINE
  5
735
100
AcDbEntity
  8
1
370
    30
  6
Continuous
 62
     7
100
AcDbLine
 10
216.197985
 20
109.174418
 30
0.0
 11
216.197985
 21
94.174418
 31
0.0
  0
LINE
  5
736
100
AcDbEntity
  8
1
370
    30
  6
Continuous
 62
     7
100
AcDbLine
 10
209.697985
 20
37.674418
 30
0.0
 11
209.697985
 21
22.674418
 31
0.0
  0
LINE
  5
737
100
AcDbEntity
  8
1
370
     9
  6
CENTER
 62
     7
100
AcDbLine
 10
148.824173
 20
37.674418
 30
0.0
 11
322.824173
 21
37.674418
 31
0.0
  0
LINE
  5
738
100
AcDbEntity
  8
1
370
    30
  6
Continuous
 62
     7
100
AcDbLine
 10
217.397985
 20
34.424418
 30
0.0
 11
217.397985
 21
28.924418
 31
0.0
  0
LINE
  5
739
100
AcDbEntity
  8
1
370
    30
  6
Continuous
 62
     7
100
AcDbLine
 10
217.697985
 20
34.124418
 30
0.0
 11
217.697985
 21
29.224418
 31
0.0
  0
LINE
  5
73A
100
AcDbEntity
  8
1
370
    30
  6
Continuous
 62
     7
100
AcDbLine
 10
214.697985
 20
35.874418
 30
0.0
 11
214.697985
 21
27.674418
 31
0.0
  0
LINE
  5
73B
100
AcDbEntity
  8
1
370
     9
  6
CENTER
 62
     7
100
AcDbLine
 10
207.739686
 20
31.674418
 30
0.0
 11
218.793761
 21
31.674418
 31
0.0
  0
LINE
  5
73C
100
AcDbEntity
  8
1
370
     9
  6
CENTER
 62
     7
100
AcDbLine
 10
148.870134
 20
37.674418
 30
0.0
 11
154.693116
 21
37.674418
 31
0.0
  0
LINE
  5
73D
100
AcDbEntity
  8
1
370
     9
  6
CENTER
 62
     7
100
AcDbLine
 10
228.397985
 20
35.667277
 30
0.0
 11
228.397985
 21
39.667277
 31
0.0
  0
LINE
  5
73E
100
AcDbEntity
  8
1
370
    30
  6
Continuous
 62
     7
100
AcDbLine
 10
230.697985
 20
30.424418
 30
0.0
 11
230.697985
 21
44.924418
 31
0.0
  0
LINE
  5
73F
100
AcDbEntity
  8
1
370
    30
  6
Continuous
 62
     7
100
AcDbLine
 10
230.697985
 20
44.924418
 30
0.0
 11
226.697985
 21
44.924418
 31
0.0
  0
LINE
  5
740
100
AcDbEntity
  8
1
370
    30
  6
Continuous
 62
     7
100
AcDbLine
 10
226.697985
 20
30.424418
 30
0.0
 11
226.697985
 21
44.924418
 31
0.0
  0
LINE
  5
741
100
AcDbEntity
  8
1
370
    30
  6
Continuous
 62
     7
100
AcDbLine
 10
226.697985
 20
42.674418
 30
0.0
 11
225.697985
 21
42.674418
 31
0.0
  0
LINE
  5
742
100
AcDbEntity
  8
1
370
    30
  6
Continuous
 62
     7
100
AcDbLine
 10
225.697985
 20
32.674418
 30
0.0
 11
225.697985
 21
42.674418
 31
0.0
  0
LINE
  5
743
100
AcDbEntity
  8
1
370
    30
  6
Continuous
 62
     7
100
AcDbLine
 10
226.697985
 20
32.674418
 30
0.0
 11
225.697985
 21
32.674418
 31
0.0
  0
LINE
  5
744
100
AcDbEntity
  8
1
370
    30
  6
Continuous
 62
     7
100
AcDbLine
 10
230.697985
 20
30.424418
 30
0.0
 11
226.697985
 21
30.424418
 31
0.0
  0
LINE
  5
745
100
AcDbEntity
  8
1
370
    30
  6
Continuous
 62
     7
100
AcDbLine
 10
214.697985
 20
35.874418
 30
0.0
 11
209.697985
 21
35.874418
 31
0.0
  0
LINE
  5
746
100
AcDbEntity
  8
1
370
    30
  6
Continuous
 62
     7
100
AcDbLine
 10
214.697985
 20
34.424418
 30
0.0
 11
217.397985
 21
34.424418
 31
0.0
  0
LINE
  5
747
100
AcDbEntity
  8
1
370
    30
  6
Continuous
 62
     7
100
AcDbLine
 10
217.397985
 20
34.424418
 30
0.0
 11
217.697985
 21
34.124418
 31
0.0
  0
LINE
  5
748
100
AcDbEntity
  8
1
370
    30
  6
Continuous
 62
     7
100
AcDbLine
 10
214.697985
 20
28.924418
 30
0.0
 11
217.397985
 21
28.924418
 31
0.0
  0
LINE
  5
749
100
AcDbEntity
  8
1
370
    30
  6
Continuous
 62
     7
100
AcDbLine
 10
217.697985
 20
29.224418
 30
0.0
 11
217.397985
 21
28.924418
 31
0.0
  0
LINE
  5
74A
100
AcDbEntity
  8
1
370
    30
  6
Continuous
 62
     7
100
AcDbLine
 10
210.697985
 20
46.674418
 30
0.0
 11
209.697985
 21
45.674418
 31
0.0
  0
LINE
  5
74B
100
AcDbEntity
  8
1
370
    30
  6
Continuous
 62
     7
100
AcDbLine
 10
210.697985
 20
46.674418
 30
0.0
 11
224.697985
 21
46.674418
 31
0.0
  0
LINE
  5
74C
100
AcDbEntity
  8
1
370
    30
  6
Continuous
 62
     7
100
AcDbLine
 10
225.697985
 20
27.674418
 30
0.0
 11
225.697985
 21
45.674418
 31
0.0
  0
LINE
  5
74D
100
AcDbEntity
  8
1
370
    30
  6
Continuous
 62
     7
100
AcDbLine
 10
224.697985
 20
46.674418
 30
0.0
 11
225.697985
 21
45.674418
 31
0.0
  0
LINE
  5
74E
100
AcDbEntity
  8
1
370
    30
  6
Continuous
 62
     7
100
AcDbLine
 10
149.697985
 20
37.674418
 30
0.0
 11
149.697985
 21
22.674418
 31
0.0
  0
LINE
  5
74F
100
AcDbEntity
  8
1
370
    30
  6
Continuous
 62
     7
100
AcDbLine
 10
159.697985
 20
22.674418
 30
0.0
 11
149.697985
 21
22.674418
 31
0.0
  0
LINE
  5
750
100
AcDbEntity
  8
1
370
    30
  6
Continuous
 62
     7
100
AcDbLine
 10
209.697985
 20
22.674418
 30
0.0
 11
199.697985
 21
22.674418
 31
0.0
  0
LINE
  5
751
100
AcDbEntity
  8
1
370
    30
  6
Continuous
 62
     7
100
AcDbLine
 10
199.697985
 20
23.174418
 30
0.0
 11
199.697985
 21
22.674418
 31
0.0
  0
LINE
  5
752
100
AcDbEntity
  8
1
370
    30
  6
Continuous
 62
     7
100
AcDbLine
 10
159.697985
 20
23.174418
 30
0.0
 11
199.697985
 21
23.174418
 31
0.0
  0
LINE
  5
753
100
AcDbEntity
  8
1
370
    30
  6
Continuous
 62
     7
100
AcDbLine
 10
159.697985
 20
23.174418
 30
0.0
 11
159.697985
 21
22.674418
 31
0.0
  0
LINE
  5
754
100
AcDbEntity
  8
1
370
    30
  6
Continuous
 62
     7
100
AcDbLine
 10
150.697985
 20
52.674418
 30
0.0
 11
208.697985
 21
52.674418
 31
0.0
  0
LINE
  5
755
100
AcDbEntity
  8
1
370
    30
  6
Continuous
 62
     7
100
AcDbLine
 10
208.697985
 20
52.674418
 30
0.0
 11
209.697985
 21
51.674418
 31
0.0
  0
LINE
  5
756
100
AcDbEntity
  8
1
370
    30
  6
Continuous
 62
     7
100
AcDbLine
 10
209.697985
 20
37.674418
 30
0.0
 11
209.697985
 21
51.674418
 31
0.0
  0
LINE
  5
757
100
AcDbEntity
  8
1
370
    30
  6
Continuous
 62
     7
100
AcDbLine
 10
150.697985
 20
52.674418
 30
0.0
 11
149.697985
 21
51.674418
 31
0.0
  0
LINE
  5
758
100
AcDbEntity
  8
1
370
    30
  6
Continuous
 62
     7
100
AcDbLine
 10
149.697985
 20
37.674418
 30
0.0
 11
149.697985
 21
51.674418
 31
0.0
  0
ENDSEC
  0
SECTION
  2
OBJECTS
  0
DICTIONARY
  5
19
100
AcDbDictionary
280
     0
281
     1
  3
ACAD_GROUP
350
1A
  3
ACAD_MLINESTYLE
350
1B
  3
ACAD_LAYOUT
350
1E
  3
ACAD_PLOTSETTINGS
350
22
  3
ACAD_PLOTSTYLENAME
350
1F
  3
ACAD_WIPEOUT_VARS
350
23
  0
DICTIONARY
  5
1A
102
{ACAD_REACTORS
330
19
102
}
100
AcDbDictionary
280
     0
281
     1
  0
DICTIONARY
  5
1B
102
{ACAD_REACTORS
330
19
102
}
100
AcDbDictionary
280
     0
281
     1
  3
Standard
350
1C
  0
MLINESTYLE
  5
1C
102
{ACAD_REACTORS
330
1B
102
}
100
AcDbMlineStyle
  2
Standard
 70
     0
  3

 62
     0
 51
90.0
 52
90.0
 71
     2
 49
0.5
 62
   256
  6
ByLayer
 49
-0.5
 62
   256
  6
ByLayer
  0
ACDBDICTIONARYWDFLT
  5
1F
102
{ACAD_REACTORS
330
19
102
}
100
AcDbDictionary
281
     1
  3
Normal
350
1D
100
AcDbDictionaryWithDefault
340
1D
  0
ACDBPLACEHOLDER
  5
1D
102
{ACAD_REACTORS
330
1F
102
}
  0
LAYOUT
  5
20
102
{ACAD_REACTORS
330
1E
102
}
100
AcDbPlotSettings
  1

  2

  4

  6

 40
0.0
 41
0.0
 42
0.0
 43
0.0
 44
0.0
 45
0.0
 46
0.0
 47
0.0
 48
0.0
 49
0.0
140
0.0
141
0.0
142
1.0
143
1.0
 70
  1024
 72
     0
 73
     0
 74
     0
  7

 75
     0
147
1.0
148
0.0
149
0.0
100
AcDbLayout
  1
Model
 70
     0
 71
     0
 10
0.0
 20
0.0
 11
0.0
 21
0.0
 12
0.0
 22
0.0
 32
0.0
 14
0.0
 24
0.0
 34
0.0
 15
0.0
 25
0.0
 35
0.0
146
0.0
 13
0.0
 23
0.0
 33
0.0
 16
0.0
 26
0.0
 36
0.0
 17
0.0
 27
0.0
 37
0.0
 76
     0
330
A
331
0
345
0
346
0
  0
LAYOUT
  5
21
102
{ACAD_REACTORS
330
1E
102
}
100
AcDbPlotSettings
  1

  2

  4

  6

 40
0.0
 41
0.0
 42
0.0
 43
0.0
 44
0.0
 45
0.0
 46
0.0
 47
0.0
 48
0.0
 49
0.0
140
0.0
141
0.0
142
1.0
143
1.0
 70
     0
 72
     0
 73
     0
 74
     0
  7

 75
     0
147
1.0
148
0.0
149
0.0
100
AcDbLayout
  1
Layout1
 70
     0
 71
     0
 10
0.0
 20
0.0
 11
0.0
 21
0.0
 12
0.0
 22
0.0
 32
0.0
 14
0.0
 24
0.0
 34
0.0
 15
0.0
 25
0.0
 35
0.0
146
0.0
 13
0.0
 23
0.0
 33
0.0
 16
0.0
 26
0.0
 36
0.0
 17
0.0
 27
0.0
 37
0.0
 76
     0
330
B
331
0
345
0
346
0
  0
DICTIONARY
  5
1E
102
{ACAD_REACTORS
330
19
102
}
100
AcDbDictionary
280
     0
281
     1
  3
Layout1
350
21
  3
Model
350
20
  0
DICTIONARY
  5
22
102
{ACAD_REACTORS
330
19
102
}
100
AcDbDictionary
280
     0
281
     1
  0
WIPEOUTVARIABLES
  5
23
100
AcDbWipeoutVariables
 70
     1
  0
ENDSEC
  0
EOF
